<?xml version="1.0" standalone="no"?>
<!DOCTYPE svg PUBLIC "-//W3C//DTD SVG 1.1//EN" "http://www.w3.org/Graphics/SVG/1.1/DTD/svg11.dtd" >
<svg xmlns="http://www.w3.org/2000/svg" xmlns:xlink="http://www.w3.org/1999/xlink" version="1.1">
<metadata>
Created by FontForge 20161003 at Thu Jul 13 07:26:24 2017
 By www-data
Copyright (c) 2011, Matthew Desmond (http://www.madtype.com | mattdesmond@gmail.com), with Reserved Font Name Abel.
</metadata>
<defs>
<font id="Abel-Regular" horiz-adv-x="930" >
  <font-face 
    font-family="Abel"
    font-weight="400"
    font-stretch="normal"
    units-per-em="2048"
    panose-1="2 0 5 6 3 0 0 2 0 4"
    ascent="1638"
    descent="-410"
    x-height="1024"
    cap-height="1434"
    bbox="-102 -604 1946 2005"
    underline-thickness="82"
    underline-position="-410"
    unicode-range="U+0020-F6C3"
  />
<missing-glyph horiz-adv-x="2048" 
 />
    <glyph glyph-name=".notdef" horiz-adv-x="2048" 
 />
    <glyph glyph-name=".null" horiz-adv-x="0" 
 />
    <glyph glyph-name="nonmarkingreturn" horiz-adv-x="471" 
 />
    <glyph glyph-name="space" unicode=" " horiz-adv-x="471" 
 />
    <glyph glyph-name="exclam" unicode="!" horiz-adv-x="428" 
d="M250 434h-72l-55 1000h182zM137 0v154h154v-154h-154z" />
    <glyph glyph-name="quotedbl" unicode="&#x22;" horiz-adv-x="645" 
d="M225 993h-51l-51 441h153zM471 993h-51l-51 441h153z" />
    <glyph glyph-name="numbersign" unicode="#" horiz-adv-x="1311" 
d="M164 1069h235l31 365h121l-31 -365h332l31 365h121l-31 -365h215v-102h-225l-41 -500h225v-102h-236l-30 -365h-121l31 365h-332l-31 -365h-121l31 365h-215v102h225l41 500h-225v102zM469 467h332l41 500h-332z" />
    <glyph glyph-name="dollar" unicode="$" horiz-adv-x="1063" 
d="M492 -246v226q-72 1 -136 28.5t-111 75t-74.5 111.5t-27.5 137v57l129 21v-78q0 -47 17 -88t47 -72t70 -49.5t86 -20.5v582q-66 24 -128.5 52.5t-111.5 72.5t-79 108t-30 158v27q0 72 27.5 135.5t74.5 111.5t111 76t136 29v184h102v-184q71 -1 134 -29.5t110 -76
t74.5 -111t27.5 -135.5v-37l-129 -21v58q0 46 -17 87t-46 71.5t-69 49.5t-85 21v-555q65 -25 129 -55t114.5 -75t81.5 -110.5t31 -160.5v-43q0 -73 -27.5 -137t-75.5 -112t-112 -75.5t-137 -27.5h-4v-226h-102zM821 375q0 57 -18 99.5t-48.5 74t-72 54.5t-88.5 42v-543
q47 0 88.5 18t72 49.5t48.5 73t18 89.5v43v0zM272 1075q0 -53 17 -92.5t47 -69.5t70 -53t86 -43v514q-46 -2 -86 -21t-70 -49.5t-47 -71.5t-17 -87v-27v0z" />
    <glyph glyph-name="percent" unicode="%" horiz-adv-x="1382" 
d="M528 915q0 -36 -13.5 -68.5t-37.5 -56.5t-56.5 -38.5t-70.5 -14.5h-28q-38 0 -70.5 14.5t-56.5 38.5t-38 56.5t-14 68.5v349q0 36 14 68.5t38 56.5t56.5 38.5t70.5 14.5h28q38 0 70.5 -14.5t56.5 -38.5t37.5 -56.5t13.5 -68.5v-349v0zM430 1264q0 17 -6.5 32t-18 26
t-26.5 17.5t-33 6.5h-20q-18 0 -33 -6.5t-26.5 -17.5t-18 -26t-6.5 -32v-349q0 -34 24.5 -57.5t59.5 -23.5h20q35 0 59.5 23.5t24.5 57.5v349zM1239 170q0 -36 -13.5 -68.5t-37.5 -56.5t-56.5 -38.5t-70.5 -14.5h-29q-37 0 -69.5 14.5t-56.5 38.5t-38 56.5t-14 68.5v348
q0 36 14 68.5t38 56.5t56.5 38.5t69.5 14.5h29q38 0 70.5 -14.5t56.5 -38.5t37.5 -56.5t13.5 -68.5v-348v0zM1141 518q0 17 -6.5 32t-18 26t-26.5 17.5t-33 6.5h-21q-18 0 -33 -6.5t-26.5 -17.5t-18 -26t-6.5 -32v-348q0 -17 6.5 -32t18 -26t26.5 -17.5t33 -6.5h21
q18 0 33 6.5t26.5 17.5t18 26t6.5 32v348zM225 0l817 1434h115l-817 -1434h-115z" />
    <glyph glyph-name="ampersand" unicode="&#x26;" horiz-adv-x="1272" 
d="M1092 -20q-87 0 -151.5 37t-102.5 100q-50 -63 -123 -100t-158 -37h-61q-73 0 -137.5 27.5t-112.5 75.5t-75.5 112t-27.5 137v78q0 51 13.5 97.5t38.5 86.5t59 72.5t76 54.5q-42 22 -76 54.5t-59 72.5t-38.5 86.5t-13.5 97.5v70q0 73 27.5 137t75.5 112t112.5 75.5
t137.5 27.5h61q73 0 137 -27.5t112 -75.5t75.5 -112t27.5 -137v-10l-129 -21v31q0 48 -18 89.5t-49 72.5t-72.5 49t-89.5 18h-49q-48 0 -89.5 -18t-73 -49t-49.5 -72.5t-18 -89.5v-90q0 -48 18 -89.5t49.5 -73t73 -49.5t89.5 -18h278v131l129 21v-150h199v-122h-199v-345
q2 -45 14 -84t35.5 -68.5t58.5 -46t81 -16.5h30l-18 -122h-18zM551 102q46 0 87 17t71.5 47t49.5 70t21 86v337h-278q-48 0 -89.5 -18t-73 -49t-49.5 -72.5t-18 -89.5v-98q0 -48 18 -89.5t49.5 -73t73 -49.5t89.5 -18h49v0z" />
    <glyph glyph-name="quotesingle" unicode="'" horiz-adv-x="399" 
d="M195 993h-52v441h154z" />
    <glyph glyph-name="parenleft" unicode="(" horiz-adv-x="684" 
d="M123 598q0 167 32 311t89 268.5t135.5 231t171.5 197.5l72 -72q-82 -85 -151.5 -188t-119.5 -221.5t-78 -250.5t-28 -276t28 -276t78 -250.5t119.5 -221.5t151.5 -188l-72 -72q-93 91 -171.5 197.5t-135.5 231.5t-89 269t-32 310z" />
    <glyph glyph-name="parenright" unicode=")" horiz-adv-x="684" 
d="M561 598q0 -166 -32 -310t-89 -269t-135.5 -231.5t-171.5 -197.5l-72 72q83 85 152 188t119 221.5t78 250.5t28 276t-28 276t-78 250.5t-119 221.5t-152 188l72 72q93 -91 171.5 -197.5t135.5 -231t89 -268.5t32 -311z" />
    <glyph glyph-name="asterisk" unicode="*" horiz-adv-x="993" 
d="M498 973l-172 -287l-119 86l221 250l-326 74l45 137l308 -131l-31 332h145l-30 -332l307 131l45 -137l-326 -74l221 -250l-118 -86z" />
    <glyph glyph-name="plus" unicode="+" horiz-adv-x="1188" 
d="M82 782h446v447h129v-447h449v-129h-449v-448h-129v448h-446v129z" />
    <glyph glyph-name="comma" unicode="," horiz-adv-x="440" 
d="M195 -287h-52v441h154z" />
    <glyph glyph-name="hyphen" unicode="-" horiz-adv-x="588" 
d="M102 627v116h383v-116h-383z" />
    <glyph glyph-name="period" unicode="." horiz-adv-x="440" 
d="M143 0v154h154v-154h-154z" />
    <glyph glyph-name="slash" unicode="/" horiz-adv-x="782" 
d="M41 -123l571 1679h129l-571 -1679h-129z" />
    <glyph glyph-name="zero" unicode="0" horiz-adv-x="1053" 
d="M909 332q0 -73 -27.5 -137t-75.5 -112t-112 -75.5t-137 -27.5h-61q-73 0 -137.5 27.5t-112.5 75.5t-75.5 112t-27.5 137v770q0 73 27.5 137t75.5 112t112.5 75.5t137.5 27.5h61q73 0 137 -27.5t112 -75.5t75.5 -112t27.5 -137v-770v0zM780 1102q0 48 -18 89.5t-49 72.5
t-72.5 49t-89.5 18h-49q-48 0 -89.5 -18t-73 -49t-49.5 -72.5t-18 -89.5v-770q0 -48 18 -89.5t49.5 -73t73 -49.5t89.5 -18h49q48 0 89.5 18t72.5 49.5t49 73t18 89.5v770z" />
    <glyph glyph-name="one" unicode="1" horiz-adv-x="1059" 
d="M164 0v123h342v1188l-342 -144v123l342 144h129v-1311h342v-123h-813z" />
    <glyph glyph-name="two" unicode="2" horiz-adv-x="1012" 
d="M471 1331q-48 0 -89.5 -18t-72.5 -49t-49 -72.5t-18 -89.5v-58l-129 21v37q0 73 27.5 137t75.5 112t112 75.5t137 27.5h61q73 0 137.5 -26t112.5 -75t75.5 -117.5t27.5 -154.5q0 -85 -25.5 -171t-67 -169t-95 -161t-109.5 -147q-131 -161 -297 -310h604v-123h-807v102
q187 154 334 319q63 71 123 151t107 164.5t75.5 172t28.5 172.5q0 63 -19 110t-51 78t-73.5 46.5t-86.5 15.5h-49z" />
    <glyph glyph-name="three" unicode="3" horiz-adv-x="1053" 
d="M909 332q0 -73 -27.5 -137t-75.5 -112t-112 -75.5t-137 -27.5h-61q-73 0 -137.5 27.5t-112.5 75.5t-75.5 112t-27.5 137v37l129 20v-57q0 -48 18 -89.5t49.5 -73t73 -49.5t89.5 -18h49q48 0 89.5 18t72.5 49.5t49 73t18 89.5v119q0 48 -18 89.5t-49 72.5t-72.5 49
t-89.5 18h-96v123h96q48 0 89.5 18t72.5 49t49 72.5t18 89.5v70q0 48 -18 89.5t-49 72.5t-72.5 49t-89.5 18h-49q-48 0 -89.5 -18t-73 -49t-49.5 -72.5t-18 -89.5v-58l-129 21v37q0 73 27.5 137t75.5 112t112.5 75.5t137.5 27.5h61q73 0 137 -27.5t112 -75.5t75.5 -112
t27.5 -137v-49q0 -51 -13.5 -97.5t-38 -86.5t-58.5 -72.5t-76 -55.5q42 -22 76 -54.5t58.5 -72.5t38 -86.5t13.5 -97.5v-98v0z" />
    <glyph glyph-name="four" unicode="4" horiz-adv-x="1032" 
d="M766 248v-248h-129v248h-576v61l637 1125h68v-1063h123v-123h-123zM637 1081l-395 -710h395v710z" />
    <glyph glyph-name="five" unicode="5" horiz-adv-x="1053" 
d="M909 332q0 -73 -27.5 -137t-75.5 -112t-112 -75.5t-137 -27.5h-61q-73 0 -137.5 27.5t-112.5 75.5t-75.5 112t-27.5 137v22h129v-22q0 -48 18 -89.5t49.5 -73t73 -49.5t89.5 -18h49q48 0 89.5 18t72.5 49.5t49 73t18 89.5v278q0 48 -18 89.5t-49 73t-72.5 49.5t-89.5 18
h-49q-48 0 -89.5 -18t-73 -49.5t-49.5 -73t-18 -89.5h-129l82 824h613v-123h-492l-47 -441q46 44 107 68.5t131 24.5h20q73 0 137 -27.5t112 -75.5t75.5 -112.5t27.5 -137.5v-278v0z" />
    <glyph glyph-name="six" unicode="6" horiz-adv-x="1053" 
d="M930 332q0 -73 -27.5 -137t-75.5 -112t-112 -75.5t-137 -27.5h-62q-73 0 -137 27.5t-112 75.5t-75.5 112t-27.5 137v770q0 73 27.5 137t75.5 112t112 75.5t137 27.5h62q73 0 137 -27.5t112 -75.5t75.5 -112t27.5 -137v-37l-129 -21v58q0 48 -18 89.5t-49.5 72.5t-73 49
t-89.5 18h-49q-48 0 -89.5 -18t-72.5 -49t-49 -72.5t-18 -89.5v-357q49 54 117.5 86.5t146.5 32.5h21q73 0 137 -27.5t112 -75.5t75.5 -112t27.5 -137v-180v0zM801 512q0 48 -18 89.5t-49.5 72.5t-73 49t-89.5 18h-49q-48 0 -89.5 -18t-72.5 -49t-49 -72.5t-18 -89.5v-180
q0 -48 18 -89.5t49 -73t72.5 -49.5t89.5 -18h49q48 0 89.5 18t73 49.5t49.5 73t18 89.5v180z" />
    <glyph glyph-name="seven" unicode="7" horiz-adv-x="1053" 
d="M389 0h-135l537 1311h-498v-191h-129v314h786v-62z" />
    <glyph glyph-name="eight" unicode="8" horiz-adv-x="1053" 
d="M909 332q0 -73 -27.5 -137t-75.5 -112t-112 -75.5t-137 -27.5h-61q-73 0 -137.5 27.5t-112.5 75.5t-75.5 112t-27.5 137v119q0 91 42.5 166.5t111.5 123.5q-69 48 -111.5 124t-42.5 167v70q0 73 27.5 137t75.5 112t112.5 75.5t137.5 27.5h61q73 0 137 -27.5t112 -75.5
t75.5 -112t27.5 -137v-70q0 -91 -42 -167t-111 -124q69 -48 111 -123.5t42 -166.5v-119v0zM780 1102q0 48 -18 89.5t-49 72.5t-72.5 49t-89.5 18h-49q-48 0 -89.5 -18t-73 -49t-49.5 -72.5t-18 -89.5v-70q0 -48 18 -89.5t49.5 -72.5t73 -49t89.5 -18h49q48 0 89.5 18
t72.5 49t49 72.5t18 89.5v70zM780 451q0 48 -18 89.5t-49 72.5t-72.5 49t-89.5 18h-49q-48 0 -89.5 -18t-73 -49t-49.5 -72.5t-18 -89.5v-119q0 -48 18 -89.5t49.5 -73t73 -49.5t89.5 -18h49q48 0 89.5 18t72.5 49.5t49 73t18 89.5v119z" />
    <glyph glyph-name="nine" unicode="9" horiz-adv-x="1053" 
d="M930 332q0 -73 -27.5 -137t-75.5 -112t-112 -75.5t-137 -27.5h-62q-73 0 -137 27.5t-112 75.5t-75.5 112t-27.5 137v37l129 20v-57q0 -48 18 -89.5t49 -73t72.5 -49.5t89.5 -18h49q48 0 89.5 18t73 49.5t49.5 73t18 89.5v356q-50 -54 -118 -86.5t-146 -32.5h-21
q-73 0 -137 27.5t-112 75.5t-75.5 112.5t-27.5 137.5v180q0 73 27.5 137t75.5 112t112 75.5t137 27.5h62q73 0 137 -27.5t112 -75.5t75.5 -112t27.5 -137v-770v0zM801 1102q0 48 -18 89.5t-49.5 72.5t-73 49t-89.5 18h-49q-48 0 -89.5 -18t-72.5 -49t-49 -72.5t-18 -89.5
v-180q0 -48 18 -89.5t49 -73t72.5 -49.5t89.5 -18h49q48 0 89.5 18t73 49.5t49.5 73t18 89.5v180z" />
    <glyph glyph-name="colon" unicode=":" horiz-adv-x="440" 
d="M143 870v154h154v-154h-154zM143 0v154h154v-154h-154z" />
    <glyph glyph-name="semicolon" unicode=";" horiz-adv-x="440" 
d="M143 870v154h154v-154h-154zM195 -287h-52v441h154z" />
    <glyph glyph-name="less" unicode="&#x3c;" horiz-adv-x="1249" 
d="M1126 1247v-141l-878 -389l878 -387v-142l-1024 457v146z" />
    <glyph glyph-name="equal" unicode="=" horiz-adv-x="1352" 
d="M1188 973v-129h-1024v129h1024zM1188 592v-129h-1024v129h1024z" />
    <glyph glyph-name="greater" unicode="&#x3e;" horiz-adv-x="1249" 
d="M999 717l-876 389v141l1024 -456v-146l-1024 -457v142z" />
    <glyph glyph-name="question" unicode="?" horiz-adv-x="950" 
d="M332 0v154h153v-154h-153zM473 434h-129v39q0 66 16 115t42.5 86t60 66t69 55.5t69 53.5t60 60t42.5 75t16 99v19q0 48 -18 89.5t-49.5 72.5t-73 49t-89.5 18h-28q-48 0 -89.5 -18t-73 -49t-49.5 -72.5t-18 -89.5v-58l-129 21v37q0 73 27.5 137t75.5 112t112.5 75.5
t137.5 27.5h41q73 0 137 -27.5t112 -75.5t75.5 -112t27.5 -137v-19q0 -69 -16 -121t-42.5 -92t-60 -71t-69 -58t-69 -53t-60 -57t-42.5 -69t-16 -89v-39z" />
    <glyph glyph-name="at" unicode="@" horiz-adv-x="2046" 
d="M1305 254q-14 -100 25.5 -147.5t123.5 -47.5q61 0 119 44t103 122.5t72.5 187t27.5 236.5q0 147 -43.5 273t-126 217.5t-203 143.5t-275.5 52q-123 0 -234 -35t-206.5 -98t-172.5 -150.5t-131.5 -193.5t-84 -226t-29.5 -249q0 -147 40 -274t119 -220.5t195.5 -146.5
t270.5 -53q56 0 109.5 7.5t101.5 19.5t88.5 28t69.5 33l41 -94q-48 -29 -102 -50.5t-109.5 -35.5t-110 -20.5t-104.5 -6.5q-177 0 -314 61t-230.5 168t-142.5 252.5t-49 315.5q0 146 35 283.5t99.5 258.5t155.5 221t202 172t240 112t270 40q177 0 317.5 -60t238.5 -165.5
t150 -249.5t52 -313q0 -81 -13 -165.5t-39 -164.5t-65 -150t-91.5 -123t-118.5 -83.5t-146 -30.5q-55 0 -96 12t-71.5 32.5t-52 49t-36.5 61.5q-51 -57 -119 -90.5t-144 -33.5h-30q-57 0 -104.5 20t-82 54.5t-54 81.5t-19.5 102v21.5t2 21.5l63 462q9 62 40.5 117t78.5 96
t105.5 64.5t119.5 23.5h31q75 0 134 -33.5t91 -90.5l84 104h41zM743 274q0 -6 -1 -12t-1 -12q0 -33 11.5 -61t32.5 -49t49.5 -32.5t62.5 -11.5h82q37 0 71 14t61.5 38t46 56.5t24.5 69.5l67 476q2 6 2 13v13q0 32 -11.5 60t-32 48.5t-49 32t-62.5 11.5h-82q-37 0 -71.5 -14
t-62 -38t-46 -56.5t-23.5 -69.5z" />
    <glyph glyph-name="A" unicode="A" horiz-adv-x="950" 
d="M702 334h-454l-94 -334h-134l420 1434h68l422 -1434h-133zM283 457h385l-189 661l-4 53l-4 -53z" />
    <glyph glyph-name="B" unicode="B" horiz-adv-x="1053" 
d="M971 352q0 -73 -27.5 -137t-75.5 -112t-112.5 -75.5t-137.5 -27.5h-454v1434h454q73 0 137.5 -27.5t112.5 -75.5t75.5 -112.5t27.5 -137.5v-14q0 -51 -13.5 -97.5t-38.5 -86.5t-59 -72.5t-76 -54.5q42 -22 76 -54.5t59 -73t38.5 -87t13.5 -97.5v-92v0zM842 465
q0 48 -18 89.5t-49.5 72.5t-73 49t-89.5 18h-319v-571h319q48 0 89.5 18t73 49t49.5 72.5t18 89.5v113zM842 1081q0 48 -18 89.5t-49.5 73t-73 49.5t-89.5 18h-319v-494h319q48 0 89.5 18t73 49.5t49.5 73t18 89.5v34z" />
    <glyph glyph-name="C" unicode="C" horiz-adv-x="1073" 
d="M950 332q0 -73 -27.5 -137t-75.5 -112t-112 -75.5t-137 -27.5h-102q-73 0 -137.5 27.5t-112.5 75.5t-75.5 112t-27.5 137v770q0 73 27.5 137t75.5 112t112.5 75.5t137.5 27.5h102q73 0 137 -27.5t112 -75.5t75.5 -112t27.5 -137v-58l-129 -20v78q0 48 -18 89.5t-49 72.5
t-72.5 49t-89.5 18h-90q-48 0 -89.5 -18t-73 -49t-49.5 -72.5t-18 -89.5v-770q0 -48 18 -89.5t49.5 -73t73 -49.5t89.5 -18h90q48 0 89.5 18t72.5 49.5t49 73t18 89.5v78l129 -21v-57v0z" />
    <glyph glyph-name="D" unicode="D" horiz-adv-x="1114" 
d="M971 352q0 -73 -27.5 -137t-75.5 -112t-112.5 -75.5t-137.5 -27.5h-454v1434h454q73 0 137.5 -27.5t112.5 -75.5t75.5 -112.5t27.5 -137.5v-729v0zM842 1081q0 48 -18 89.5t-49.5 73t-73 49.5t-89.5 18h-319v-1188h319q48 0 89.5 18t73 49t49.5 72.5t18 89.5v729z" />
    <glyph glyph-name="E" unicode="E" horiz-adv-x="1053" 
d="M164 0v1434h807v-123h-678v-533h549v-123h-549v-532h678v-123h-807z" />
    <glyph glyph-name="F" unicode="F" horiz-adv-x="1012" 
d="M293 1311v-533h549v-123h-549v-655h-129v1434h807v-123h-678z" />
    <glyph glyph-name="G" unicode="G" horiz-adv-x="1094" 
d="M950 0h-41l-75 115q-47 -62 -114 -98.5t-149 -36.5h-75q-73 0 -137.5 27.5t-112.5 75.5t-75.5 112t-27.5 137v770q0 73 27.5 137t75.5 112t112.5 75.5t137.5 27.5h102q73 0 137 -27.5t112 -75.5t75.5 -112t27.5 -137v-58l-129 -20v78q0 48 -18 89.5t-49 72.5t-72.5 49
t-89.5 18h-90q-48 0 -89.5 -18t-73 -49t-49.5 -72.5t-18 -89.5v-770q0 -48 18 -89.5t49.5 -73t73 -49.5t89.5 -18h90q48 0 89.5 18t72.5 49.5t49 73t18 89.5v299h-229v123h358v-754z" />
    <glyph glyph-name="H" unicode="H" horiz-adv-x="1135" 
d="M842 0v655h-549v-655h-129v1434h129v-656h549v656h129v-1434h-129z" />
    <glyph glyph-name="I" unicode="I" horiz-adv-x="457" 
d="M164 0v1434h129v-1434h-129z" />
    <glyph glyph-name="J" unicode="J" 
d="M807 332q0 -73 -27.5 -137t-75.5 -112t-112 -75.5t-137 -27.5h-41q-73 0 -137.5 27.5t-112.5 75.5t-75.5 112t-27.5 137v57l129 21v-78q0 -48 18 -89.5t49.5 -73t73 -49.5t89.5 -18h29q47 0 89 18t73 49.5t49 73t18 89.5v1102h129v-1102v0z" />
    <glyph glyph-name="K" unicode="K" horiz-adv-x="1065" 
d="M864 0l-540 717l540 717h160l-551 -717l551 -717h-160zM164 0v1434h129v-1434h-129z" />
    <glyph glyph-name="L" unicode="L" horiz-adv-x="862" 
d="M143 0v1434h129v-1311h549v-123h-678z" />
    <glyph glyph-name="M" unicode="M" horiz-adv-x="1339" 
d="M1047 0v983l-9 -61l-333 -922h-68l-336 922l-8 61v-983h-129v1434h67l435 -1176l4 -53l4 53l434 1176h68v-1434h-129z" />
    <glyph glyph-name="N" unicode="N" horiz-adv-x="1135" 
d="M903 0l-598 1044l-12 62v-1106h-129v1434h67l598 -1045l13 -61v1106h129v-1434h-68z" />
    <glyph glyph-name="O" unicode="O" horiz-adv-x="1094" 
d="M950 332q0 -73 -27.5 -137t-75.5 -112t-112 -75.5t-137 -27.5h-102q-73 0 -137.5 27.5t-112.5 75.5t-75.5 112t-27.5 137v770q0 73 27.5 137t75.5 112t112.5 75.5t137.5 27.5h102q73 0 137 -27.5t112 -75.5t75.5 -112t27.5 -137v-770v0zM821 1102q0 48 -18 89.5t-49 72.5
t-72.5 49t-89.5 18h-90q-48 0 -89.5 -18t-73 -49t-49.5 -72.5t-18 -89.5v-770q0 -48 18 -89.5t49.5 -73t73 -49.5t89.5 -18h90q48 0 89.5 18t72.5 49.5t49 73t18 89.5v770z" />
    <glyph glyph-name="P" unicode="P" horiz-adv-x="1053" 
d="M971 903q0 -73 -27.5 -137t-75.5 -112t-112.5 -75.5t-137.5 -27.5h-325v-551h-129v1434h454q73 0 137.5 -27.5t112.5 -75.5t75.5 -112.5t27.5 -137.5v-178v0zM842 1081q0 48 -18 89.5t-49.5 73t-73 49.5t-89.5 18h-319v-637h319q48 0 89.5 18t73 49t49.5 72.5t18 89.5
v178z" />
    <glyph glyph-name="Q" unicode="Q" horiz-adv-x="1094" 
d="M950 332q0 -70 -25 -132t-69 -109t-103.5 -76.5t-127.5 -34.5l131 -295h-129l-131 295q-73 0 -137.5 27.5t-112.5 75.5t-75.5 112t-27.5 137v770q0 73 27.5 137t75.5 112t112.5 75.5t137.5 27.5h102q73 0 137 -27.5t112 -75.5t75.5 -112t27.5 -137v-770v0zM821 1102
q0 48 -18 89.5t-49 72.5t-72.5 49t-89.5 18h-90q-48 0 -89.5 -18t-73 -49t-49.5 -72.5t-18 -89.5v-770q0 -48 18 -89.5t49.5 -73t73 -49.5t89.5 -18h90q48 0 89.5 18t72.5 49.5t49 73t18 89.5v770z" />
    <glyph glyph-name="R" unicode="R" horiz-adv-x="1069" 
d="M838 0l-389 612h-177v-612h-129v1434h455q73 0 137 -27.5t112 -75.5t75.5 -112.5t27.5 -137.5v-116q0 -73 -27.5 -137.5t-75.5 -112.5t-112 -75.5t-137 -27.5l389 -612h-149zM821 1081q0 48 -18 89.5t-49 73t-72.5 49.5t-89.5 18h-320v-576h320q48 0 89.5 18t72.5 49.5
t49 73t18 89.5v116z" />
    <glyph glyph-name="S" unicode="S" horiz-adv-x="1063" 
d="M950 332q0 -73 -29.5 -137t-79 -112t-115 -75.5t-138.5 -27.5h-103q-73 0 -138.5 27.5t-115 75.5t-79 112t-29.5 137v57l129 21v-78q0 -48 19.5 -89.5t52.5 -73t76.5 -49.5t91.5 -18h90q48 0 91 18t76 49.5t52.5 73t19.5 89.5v43q0 74 -29 123t-77 83.5t-108.5 58.5
t-124.5 48t-124.5 53t-108.5 72.5t-77 106.5t-29 155v27q0 73 27.5 137t75.5 112t112.5 75.5t137.5 27.5h92q73 0 137 -27.5t112 -75.5t75.5 -112t27.5 -137v-37l-129 -21v58q0 48 -18 89.5t-49 72.5t-72.5 49t-89.5 18h-80q-48 0 -89.5 -18t-73 -49t-49.5 -72.5t-18 -89.5
v-27q0 -69 29 -116t77 -80.5t108.5 -58t124.5 -50t124.5 -56t108.5 -75t77 -108.5t29 -156v-43z" />
    <glyph glyph-name="T" unicode="T" horiz-adv-x="895" 
d="M512 1311v-1311h-129v1311h-342v123h813v-123h-342z" />
    <glyph glyph-name="U" unicode="U" horiz-adv-x="1094" 
d="M950 332q0 -73 -27.5 -137t-75.5 -112t-112 -75.5t-137 -27.5h-102q-73 0 -137.5 27.5t-112.5 75.5t-75.5 112t-27.5 137v1102h129v-1102q0 -48 18 -89.5t49.5 -73t73 -49.5t89.5 -18h90q48 0 89.5 18t72.5 49.5t49 73t18 89.5v1102h129v-1102v0z" />
    <glyph glyph-name="V" unicode="V" horiz-adv-x="950" 
d="M471 315l4 -53l4 53l318 1119h133l-422 -1434h-68l-420 1434h134z" />
    <glyph glyph-name="W" unicode="W" horiz-adv-x="1542" 
d="M1122 0h-67l-279 1079l-4 56l-6 -56l-277 -1079h-67l-381 1434h129l281 -1090l4 -53l4 53l276 1090h72l276 -1090l4 -53l5 53l280 1090h129z" />
    <glyph glyph-name="X" unicode="X" horiz-adv-x="991" 
d="M791 0l-295 596l-295 -596h-140l365 737l-344 697h139l275 -555l274 555h139l-344 -697l365 -737h-139z" />
    <glyph glyph-name="Y" unicode="Y" horiz-adv-x="950" 
d="M541 686v-686h-129v684l-371 750h139l295 -596l295 596h139z" />
    <glyph glyph-name="Z" unicode="Z" horiz-adv-x="971" 
d="M82 0v61l639 1250h-619v123h787v-62l-639 -1249h639v-123h-807z" />
    <glyph glyph-name="bracketleft" unicode="[" horiz-adv-x="633" 
d="M530 -410h-366v2016h366v-111h-243v-1794h243v-111z" />
    <glyph glyph-name="backslash" unicode="\" horiz-adv-x="782" 
d="M612 -123l-571 1679h129l571 -1679h-129z" />
    <glyph glyph-name="bracketright" unicode="]" horiz-adv-x="633" 
d="M102 -299h244v1794h-244v111h367v-2016h-367v111z" />
    <glyph glyph-name="asciicircum" unicode="^" horiz-adv-x="1104" 
d="M981 776h-137l-293 539l-291 -539h-137l360 658h138z" />
    <glyph glyph-name="underscore" unicode="_" horiz-adv-x="1122" 
d="M1124 -293v-117h-1126v117h1126z" />
    <glyph glyph-name="grave" unicode="`" horiz-adv-x="778" 
d="M205 1434h205l163 -246h-92z" />
    <glyph glyph-name="a" unicode="a" 
d="M766 0l-68 102q-42 -55 -105 -88.5t-138 -33.5h-31q-62 0 -117 23.5t-96 64.5t-64.5 96t-23.5 117v10q0 62 23.5 117t64.5 96t96 64.5t117 23.5h260v158q0 37 -14 69.5t-38 56.5t-56.5 38t-69.5 14h-72q-37 0 -69.5 -14t-56.5 -38t-38 -56.5t-14 -69.5v-37l-123 20v10
q0 62 23.5 117t64.5 96t96 64.5t117 23.5h72q62 0 117 -23.5t96 -64.5t64.5 -96t23.5 -117v-743h-41zM684 496h-260q-37 0 -69.5 -14t-56.5 -38.5t-38 -57t-14 -69.5v-43q0 -37 14 -69.5t38 -56.5t56.5 -38t69.5 -14h82q37 0 69.5 14t56.5 38t38 56.5t14 69.5v222z" />
    <glyph glyph-name="b" unicode="b" 
d="M807 281q0 -62 -23.5 -117t-64.5 -96t-96 -64.5t-117 -23.5h-82q-62 0 -117 23.5t-96 64.5t-64.5 96t-23.5 117v1153h123v-496q42 50 101 78t128 28h31q62 0 117 -23.5t96 -64.5t64.5 -96t23.5 -117v-462v0zM684 750q0 37 -14 69.5t-38 56.5t-56.5 38t-69.5 14h-82
q-37 0 -69.5 -14t-56.5 -38t-38 -56.5t-14 -69.5v-476q0 -37 14 -69.5t38 -56.5t56.5 -38t69.5 -14h82q37 0 69.5 14t56.5 38t38 56.5t14 69.5v476z" />
    <glyph glyph-name="c" unicode="c" 
d="M807 281q0 -62 -23.5 -117t-64.5 -96t-96 -64.5t-117 -23.5h-82q-62 0 -117 23.5t-96 64.5t-64.5 96t-23.5 117v462q0 62 23.5 117t64.5 96t96 64.5t117 23.5h82q62 0 117 -23.5t96 -64.5t64.5 -96t23.5 -117v-41l-123 -20v68q0 37 -14 69.5t-38 56.5t-56.5 38t-69.5 14
h-82q-37 0 -69.5 -14t-56.5 -38t-38 -56.5t-14 -69.5v-476q0 -37 14 -69.5t38 -56.5t56.5 -38t69.5 -14h82q37 0 69.5 14t56.5 38t38 56.5t14 69.5v68l123 -20v-41v0z" />
    <glyph glyph-name="d" unicode="d" 
d="M766 0l-68 104q-42 -57 -105 -90.5t-138 -33.5h-31q-62 0 -117 23.5t-96 64.5t-64.5 96t-23.5 117v462q0 62 23.5 117t64.5 96t96 64.5t117 23.5h31q69 0 128 -28t101 -78v496h123v-1434h-41zM684 750q0 37 -14 69.5t-38 56.5t-56.5 38t-69.5 14h-82q-37 0 -69.5 -14
t-56.5 -38t-38 -56.5t-14 -69.5v-476q0 -37 14 -69.5t38 -56.5t56.5 -38t69.5 -14h82q37 0 69.5 14t56.5 38t38 56.5t14 69.5v476z" />
    <glyph glyph-name="e" unicode="e" 
d="M807 281q0 -62 -23.5 -117t-64.5 -96t-96 -64.5t-117 -23.5h-82q-62 0 -117 23.5t-96 64.5t-64.5 96t-23.5 117v462q0 62 23.5 117t64.5 96t96 64.5t117 23.5h82q62 0 117 -23.5t96 -64.5t64.5 -96t23.5 -117v-241h-561v-228q0 -37 14 -69.5t38 -56.5t56.5 -38t69.5 -14
h82q37 0 69.5 14t56.5 38t38 56.5t14 69.5v68l123 -20v-41v0zM684 750q0 37 -14 69.5t-38 56.5t-56.5 38t-69.5 14h-82q-37 0 -69.5 -14t-56.5 -38t-38 -56.5t-14 -69.5v-152h438v152z" />
    <glyph glyph-name="f" unicode="f" horiz-adv-x="588" 
d="M475 1317q-31 0 -57.5 -11.5t-46.5 -31.5t-31.5 -47t-11.5 -58v-145h239v-117h-239v-907h-123v907h-185v117h185v139q0 56 21 105.5t58 86.5t86 58t105 21h113v-117h-113z" />
    <glyph glyph-name="g" unicode="g" 
d="M817 -129q0 -62 -23.5 -114t-64.5 -89t-96 -57.5t-117 -20.5h-51q-62 0 -117 20.5t-96 57.5t-64.5 89t-23.5 114v4q0 60 22 110t60 87q-48 29 -76.5 78.5t-28.5 109.5q0 54 23 100.5t63 75.5q-48 42 -76 101t-28 129v77q0 62 23.5 117t64.5 96t96 64.5t117 23.5h51
q75 0 138.5 -33.5t105.5 -90.5l67 104h41v-358q0 -62 -23.5 -117t-64.5 -96t-96 -64.5t-117 -23.5h-178q-21 0 -40 -8.5t-33.5 -22.5t-22.5 -33.5t-8 -40.5t8 -40t22.5 -33.5t33.5 -22.5t40 -8h168q62 0 117 -20.5t96 -57.5t64.5 -89t23.5 -114v-4v0zM705 750q0 37 -14 69.5
t-38.5 56.5t-57 38t-69.5 14h-102q-37 0 -69.5 -14t-56.5 -38t-38 -56.5t-14 -69.5v-91q0 -37 14 -69.5t38 -56.5t56.5 -38t69.5 -14h102q37 0 69.5 14t57 38t38.5 56.5t14 69.5v91zM700 -119q0 37 -14 66.5t-38 49.5t-56.5 31t-69.5 11h-63q-37 0 -69.5 -11t-56.5 -31
t-38 -49.5t-14 -66.5v-16q0 -37 14 -66t38 -49.5t56.5 -31.5t69.5 -11h63q37 0 69.5 11t56.5 31.5t38 49.5t14 66v16z" />
    <glyph glyph-name="h" unicode="h" 
d="M684 0v750q0 37 -14 69.5t-38 56.5t-56.5 38t-69.5 14h-82q-37 0 -69.5 -14t-56.5 -38t-38 -56.5t-14 -69.5v-750h-123v1434h123v-496q42 50 101 78t128 28h31q62 0 117 -23.5t96 -64.5t64.5 -96t23.5 -117v-743h-123z" />
    <glyph glyph-name="i" unicode="i" horiz-adv-x="451" 
d="M154 1270v164h143v-164h-143zM164 0v1024h123v-1024h-123z" />
    <glyph glyph-name="j" unicode="j" horiz-adv-x="451" 
d="M154 1270v164h143v-164h-143zM287 -109q0 -62 -23.5 -116.5t-64.5 -95.5t-96 -65t-117 -24v117q37 0 69.5 14t56.5 38t38 56.5t14 69.5v1139h123v-1133v0z" />
    <glyph glyph-name="k" unicode="k" 
d="M729 0l-418 512l418 512h160l-428 -512l428 -512h-160zM164 0v1434h123v-1434h-123z" />
    <glyph glyph-name="l" unicode="l" horiz-adv-x="451" 
d="M164 0v1434h123v-1434h-123z" />
    <glyph glyph-name="m" unicode="m" horiz-adv-x="1450" 
d="M1204 0v750q0 37 -14 69.5t-38 56.5t-56.5 38t-69.5 14h-61q-37 0 -69.5 -14t-57 -38t-38.5 -56.5t-14 -69.5v-750h-122v750q0 37 -14 69.5t-38.5 56.5t-57 38t-69.5 14h-61q-37 0 -69.5 -14t-56.5 -38t-38 -56.5t-14 -69.5v-750h-123v1024h41l67 -104q42 57 105.5 90.5
t138.5 33.5h10q87 0 157 -43t108 -114q19 35 47 64t62 49.5t74 32t83 11.5h10q62 0 117 -23.5t96 -64.5t64.5 -96t23.5 -117v-743h-123z" />
    <glyph glyph-name="n" unicode="n" 
d="M684 0v750q0 37 -14 69.5t-38 56.5t-56.5 38t-69.5 14h-82q-37 0 -69.5 -14t-56.5 -38t-38 -56.5t-14 -69.5v-750h-123v1024h41l67 -104q42 57 105.5 90.5t138.5 33.5h31q62 0 117 -23.5t96 -64.5t64.5 -96t23.5 -117v-743h-123z" />
    <glyph glyph-name="o" unicode="o" 
d="M807 281q0 -62 -23.5 -117t-64.5 -96t-96 -64.5t-117 -23.5h-82q-62 0 -117 23.5t-96 64.5t-64.5 96t-23.5 117v462q0 62 23.5 117t64.5 96t96 64.5t117 23.5h82q62 0 117 -23.5t96 -64.5t64.5 -96t23.5 -117v-462v0zM684 750q0 37 -14 69.5t-38 56.5t-56.5 38t-69.5 14
h-82q-37 0 -69.5 -14t-56.5 -38t-38 -56.5t-14 -69.5v-476q0 -37 14 -69.5t38 -56.5t56.5 -38t69.5 -14h82q37 0 69.5 14t56.5 38t38 56.5t14 69.5v476z" />
    <glyph glyph-name="p" unicode="p" 
d="M807 281q0 -62 -23.5 -117t-64.5 -96t-96 -64.5t-117 -23.5h-31q-69 0 -128 28t-101 78v-496h-123v1434h41l67 -104q42 57 105.5 90.5t138.5 33.5h31q62 0 117 -23.5t96 -64.5t64.5 -96t23.5 -117v-462v0zM684 750q0 37 -14 69.5t-38 56.5t-56.5 38t-69.5 14h-82
q-37 0 -69.5 -14t-56.5 -38t-38 -56.5t-14 -69.5v-476q0 -37 14 -69.5t38 -56.5t56.5 -38t69.5 -14h82q37 0 69.5 14t56.5 38t38 56.5t14 69.5v476z" />
    <glyph glyph-name="q" unicode="q" 
d="M684 -410v496q-42 -50 -101 -78t-128 -28h-31q-62 0 -117 23.5t-96 64.5t-64.5 96t-23.5 117v462q0 62 23.5 117t64.5 96t96 64.5t117 23.5h31q75 0 138 -33.5t105 -90.5l68 104h41v-1434h-123zM684 750q0 37 -14 69.5t-38 56.5t-56.5 38t-69.5 14h-82q-37 0 -69.5 -14
t-56.5 -38t-38 -56.5t-14 -69.5v-476q0 -37 14 -69.5t38 -56.5t56.5 -38t69.5 -14h82q37 0 69.5 14t56.5 38t38 56.5t14 69.5v476z" />
    <glyph glyph-name="r" unicode="r" horiz-adv-x="588" 
d="M424 907q-37 0 -69.5 -14t-56.5 -38t-38 -56.5t-14 -69.5v-729h-123v1024h41l67 -104q42 57 105.5 90.5t138.5 33.5h72v-137h-123z" />
    <glyph glyph-name="s" unicode="s" horiz-adv-x="940" 
d="M827 260q0 -62 -25 -113.5t-68 -88.5t-99.5 -57.5t-118.5 -20.5h-82q-62 0 -118.5 23.5t-99 64.5t-68 96t-25.5 117v41l123 20v-68q0 -37 15.5 -69.5t41.5 -56.5t60 -38t71 -14h82q37 0 71 11t60.5 31.5t42 49.5t15.5 66q0 55 -24 90t-63.5 58.5t-90 39t-103.5 31
t-103.5 35.5t-90 52.5t-63.5 81.5t-24 122q0 62 24 113.5t65 88.5t95.5 57.5t116.5 20.5h72q62 0 117 -23.5t96 -64.5t64.5 -96t23.5 -117v-4l-123 -20v31q0 37 -14 69.5t-38 56.5t-56.5 38t-69.5 14h-72q-37 0 -69.5 -11t-56.5 -31.5t-38 -49.5t-14 -66q0 -53 24 -86.5
t63.5 -56.5t90 -38.5t103 -32t103 -37.5t90 -54t63.5 -82.5t24 -122.5z" />
    <glyph glyph-name="t" unicode="t" horiz-adv-x="711" 
d="M496 0q-56 0 -105.5 21t-86 58t-58 86t-21.5 105v637h-184v117h184v246l123 20v-266h260v-117h-260v-643q0 -31 11.5 -57.5t31.5 -46.5t47 -31.5t58 -11.5h112v-117h-112z" />
    <glyph glyph-name="u" unicode="u" 
d="M766 0l-68 104q-42 -57 -105 -90.5t-138 -33.5h-31q-62 0 -117 23.5t-96 64.5t-64.5 96t-23.5 117v743h123v-750q0 -37 14 -69.5t38 -56.5t56.5 -38t69.5 -14h82q37 0 69.5 14t56.5 38t38 56.5t14 69.5v750h123v-1024h-41z" />
    <glyph glyph-name="v" unicode="v" horiz-adv-x="827" 
d="M444 0h-61l-363 1024h123l267 -776l4 -53l4 53l266 776h123z" />
    <glyph glyph-name="w" unicode="w" horiz-adv-x="1348" 
d="M985 0h-67l-240 772l-4 53l-4 -53l-240 -772h-68l-342 1024h125l244 -774l4 -53l4 53l240 774h74l239 -774l4 -53l4 53l244 774h125z" />
    <glyph glyph-name="x" unicode="x" horiz-adv-x="868" 
d="M653 0l-219 393l-219 -393h-133l287 512l-287 512h133l219 -393l219 393h133l-286 -512l286 -512h-133z" />
    <glyph glyph-name="y" unicode="y" horiz-adv-x="807" 
d="M289 -410h-119l182 498l-332 936h123l267 -776l4 -53l4 53l266 776h123z" />
    <glyph glyph-name="z" unicode="z" horiz-adv-x="848" 
d="M82 0v55l516 852h-496v117h664v-55l-516 -852h516v-117h-684z" />
    <glyph glyph-name="braceleft" unicode="{" horiz-adv-x="778" 
d="M334 313q0 52 -17 94.5t-47.5 72.5t-73 46.5t-92.5 16.5h-22v110h33q48 2 88 19t69 47t45.5 71.5t16.5 92.5v370q0 77 26.5 141.5t74 111.5t112 73.5t139.5 26.5h10v-111h-10q-50 0 -92 -16.5t-72.5 -46.5t-47.5 -72.5t-17 -93.5v-371q0 -97 -42.5 -175t-113.5 -122
q71 -46 113.5 -123t42.5 -174v-371q0 -51 17 -93.5t47.5 -72.5t72.5 -46.5t92 -16.5h10v-111h-10q-75 0 -139.5 26.5t-112 73.5t-74 111.5t-26.5 141.5v370z" />
    <glyph glyph-name="bar" unicode="|" horiz-adv-x="457" 
d="M164 -410v2016h129v-2016h-129z" />
    <glyph glyph-name="braceright" unicode="}" horiz-adv-x="778" 
d="M444 -57q0 -77 -26.5 -141.5t-74 -111.5t-112 -73.5t-139.5 -26.5h-10v111h10q50 0 92 16.5t73 46.5t48 72.5t17 93.5v371q0 97 41.5 174t113.5 123q-72 45 -113.5 122.5t-41.5 174.5v371q0 51 -17 93.5t-48 72.5t-73 46.5t-92 16.5h-10v111h10q75 0 139.5 -26.5
t112 -73.5t74 -111.5t26.5 -141.5v-370q0 -52 17 -94.5t48 -72.5t73 -46.5t92 -16.5h22v-110h-32q-48 -1 -88.5 -18.5t-70 -48t-45.5 -72t-16 -91.5v-370z" />
    <glyph glyph-name="asciitilde" unicode="~" horiz-adv-x="985" 
d="M659 604q28 0 49.5 11.5t36.5 31t23 46t8 57.5h107q0 -54 -14 -101t-42 -82t-70.5 -55t-99.5 -20q-39 0 -71.5 11t-60.5 27t-53 35.5t-49 35.5t-47.5 27t-49.5 11q-54 0 -85.5 -41t-31.5 -104h-107q0 54 14 101t42.5 82t71 55t98.5 20q58 0 102.5 -23t82.5 -51t73 -51
t73 -23z" />
    <glyph glyph-name="uni00A0" unicode="&#xa0;" horiz-adv-x="471" 
 />
    <glyph glyph-name="exclamdown" unicode="&#xa1;" horiz-adv-x="428" 
d="M305 -410h-182l55 1000h72zM291 1024v-154h-154v154h154z" />
    <glyph glyph-name="cent" unicode="&#xa2;" 
d="M184 -20l78 251q-63 41 -101 107.5t-38 146.5v463q0 62 23.5 117t64.5 96t96 64.5t117 23.5h82q17 0 33.5 -1.5t31.5 -6.5l66 213h108l-77 -252q63 -40 101 -106.5t38 -147.5v-41l-123 -20v67q0 38 -14 70.5t-39 56.5l-238 -778q8 -2 15.5 -2h15.5h82q37 0 69.5 14
t56.5 38t38 56.5t14 69.5v68l123 -21v-41q0 -62 -23.5 -117t-64.5 -96t-96 -64.5t-117 -23.5h-82q-34 0 -66 6l-65 -210h-109zM246 479q0 -37 14 -69.5t39 -57.5l238 776q-8 2 -15.5 3.5t-15.5 1.5h-82q-37 0 -69.5 -14t-56.5 -38.5t-38 -57t-14 -69.5v-475v0z" />
    <glyph glyph-name="sterling" unicode="&#xa3;" horiz-adv-x="1108" 
d="M303 686q-14 48 -28 97.5t-25 100.5t-18 105.5t-7 112.5q0 73 27.5 137t75.5 112t112.5 75.5t137.5 27.5h28q73 0 137 -27.5t112 -75.5t75.5 -112t27.5 -137v-37l-129 -21v58q0 48 -18 89.5t-49 72.5t-72.5 49t-89.5 18h-16q-48 0 -89.5 -18t-73 -49t-49.5 -72.5
t-18 -89.5q0 -55 7.5 -107.5t20 -103.5t28 -102t30.5 -103h340v-102h-313q12 -56 20.5 -113t8.5 -119q0 -66 -20.5 -124.5t-55.5 -104.5h545v-123h-842v123h35q48 0 86.5 18t65.5 49t42 72.5t15 89.5q0 60 -9.5 117.5t-23.5 114.5h-211v102h180z" />
    <glyph glyph-name="currency" unicode="&#xa4;" horiz-adv-x="1237" 
d="M215 1212l150 -151q54 40 117.5 62t135.5 22t136 -22t116 -62l152 151l90 -92l-149 -149q38 -54 59.5 -117.5t21.5 -134.5t-21.5 -135t-61.5 -117l153 -154l-92 -90l-154 152q-52 -38 -115 -59t-135 -21q-71 0 -135 21t-116 59l-152 -152l-92 90l153 154
q-40 53 -60.5 117t-20.5 135t20.5 134t58.5 116l-149 151zM317 719q0 -64 23.5 -119.5t64 -96.5t95.5 -65t118 -24q64 0 119.5 24t96.5 65t64.5 96.5t23.5 119.5t-23.5 120t-64.5 97.5t-96.5 65.5t-119.5 24q-63 0 -118 -24t-95.5 -65.5t-64 -97.5t-23.5 -120z" />
    <glyph glyph-name="yen" unicode="&#xa5;" horiz-adv-x="950" 
d="M397 711l-356 723h139l295 -596l295 596h139l-356 -723h274v-103h-286v-133h286v-102h-286v-373h-129v373h-289v102h289v133h-289v103h274z" />
    <glyph glyph-name="brokenbar" unicode="&#xa6;" horiz-adv-x="457" 
d="M164 -410v906h129v-906h-129zM164 700v906h129v-906h-129z" />
    <glyph glyph-name="section" unicode="&#xa7;" horiz-adv-x="1073" 
d="M143 1102q0 73 27.5 137t75.5 112t112.5 75.5t137.5 27.5h92q73 0 137 -27.5t112 -75.5t75.5 -112t27.5 -137v-37l-129 -21v58q0 48 -18 89.5t-49 72.5t-72.5 49t-89.5 18h-80q-48 0 -89.5 -18t-73 -49t-49.5 -72.5t-18 -89.5v-27q0 -69 29 -116t77 -80.5t108.5 -58
t124.5 -50t124.5 -56t108.5 -75t77 -108.5t29 -156v-43q0 -48 -13 -92t-36 -82q23 -39 36 -86t13 -107v-43q0 -73 -29.5 -137t-79 -112t-115 -75.5t-138.5 -27.5h-103q-73 0 -138.5 27.5t-115 75.5t-79 112t-29.5 137v58l129 20v-78q0 -48 19.5 -89.5t52.5 -72.5t76.5 -49
t91.5 -18h90q48 0 91 18t76 49t52.5 72.5t19.5 89.5v43q0 74 -29 123t-77 83.5t-108.5 58.5t-124.5 48t-124.5 53t-108.5 72.5t-77 106.5t-29 156v26q0 51 13.5 97t38.5 88q-25 38 -38.5 86.5t-13.5 111.5v27zM821 375q0 69 -25.5 116.5t-68 81t-97.5 57t-113.5 45.5
t-117 46.5t-108.5 58.5q-19 -41 -19 -88v-26q0 -66 26 -111t68.5 -78t98 -57t115 -47.5t118.5 -49.5t109 -63q6 17 10 34.5t4 37.5v43z" />
    <glyph glyph-name="dieresis" unicode="&#xa8;" horiz-adv-x="950" 
d="M205 1231v153h153v-153h-153zM592 1231v153h153v-153h-153z" />
    <glyph glyph-name="copyright" unicode="&#xa9;" horiz-adv-x="1679" 
d="M102 717q0 102 26.5 196t74.5 176t115 149t149 115t176.5 74.5t196.5 26.5t196 -26.5t176 -74.5t149 -115t115 -149t74.5 -176t26.5 -196t-26.5 -196.5t-74.5 -176t-115 -149t-149 -115t-176 -74t-196 -26.5t-196.5 26.5t-176.5 74t-149 115t-115 149t-74.5 176
t-26.5 196.5zM217 717q0 -131 48 -246t132 -200.5t197.5 -135t245.5 -49.5q131 0 244.5 49.5t197.5 135t132 200.5t48 246t-48 246t-132 200.5t-197.5 135t-244.5 49.5q-132 0 -245.5 -49.5t-197.5 -135t-132 -200.5t-48 -246zM1100 485q0 -48 -18 -89.5t-49.5 -72.5
t-73 -49t-89.5 -18h-61q-48 0 -89.5 18t-72.5 49t-49 72.5t-18 89.5v463q0 48 18 89.5t49 73t72.5 49.5t89.5 18h61q48 0 89.5 -18t73 -49.5t49.5 -73t18 -89.5v-51l-115 -18v69q0 25 -9.5 46.5t-25.5 37.5t-37.5 25.5t-46.5 9.5h-53q-24 0 -46 -9.5t-38 -25.5t-25.5 -37.5
t-9.5 -46.5v-463q0 -24 9.5 -45.5t25.5 -37.5t38 -25.5t46 -9.5h53q25 0 46.5 9.5t37.5 25.5t25.5 37.5t9.5 45.5v70l115 -18v-52v0z" />
    <glyph glyph-name="ordfeminine" unicode="&#xaa;" horiz-adv-x="717" 
d="M532 795l-36 53q-26 -28 -64.5 -47t-79.5 -19h-18q-40 0 -75 15t-60.5 41.5t-40.5 62.5t-15 78q0 40 15 74.5t40.5 60t60.5 40.5t75 15h145v86q0 20 -7.5 37.5t-20.5 30.5t-30.5 21t-37.5 8h-43q-20 0 -37.5 -8t-30.5 -21t-20.5 -30.5t-7.5 -37.5v-36l-94 24
q0 41 14.5 77t40 63t60.5 43t75 16h43q40 0 74.5 -15t60 -41t40.5 -61t15 -74v-456h-41zM479 1092h-145q-40 0 -68 -28t-28 -69v-26q0 -19 7.5 -36.5t20.5 -31t30.5 -21.5t37.5 -8h49q20 0 37.5 8t30.5 21.5t20.5 31t7.5 36.5v123zM143 631h430v-78h-430v78z" />
    <glyph glyph-name="guillemotleft" unicode="&#xab;" horiz-adv-x="961" 
d="M797 84l-377 383l377 383l41 -41l-250 -342l250 -342zM459 84l-377 383l377 383l41 -41l-250 -342l250 -342z" />
    <glyph glyph-name="logicalnot" unicode="&#xac;" horiz-adv-x="1270" 
d="M1147 782v-473h-129v344h-895v129h1024z" />
    <glyph glyph-name="registered" unicode="&#xae;" horiz-adv-x="1679" 
d="M102 717q0 102 26.5 196t74.5 176t115 149t149 115t176.5 74.5t196.5 26.5t196 -26.5t176 -74.5t149 -115t115 -149t74.5 -176t26.5 -196t-26.5 -196.5t-74.5 -176t-115 -149t-149 -115t-176 -74t-196 -26.5t-196.5 26.5t-176.5 74t-149 115t-115 149t-74.5 176
t-26.5 196.5zM217 717q0 -131 48 -246t132 -200.5t197.5 -135t245.5 -49.5q131 0 244.5 49.5t197.5 135t132 200.5t48 246t-48 246t-132 200.5t-197.5 135t-244.5 49.5q-132 0 -245.5 -49.5t-197.5 -135t-132 -200.5t-48 -246zM1001 268l-210 330h-76v-330h-115v897h291
q48 0 89.5 -18t72.5 -49t49 -72.5t18 -89.5v-107q0 -43 -14.5 -82.5t-40.5 -70t-61.5 -51t-77.5 -25.5q24 -37 51.5 -80.5t55 -87.5t54.5 -86.5t50 -77.5h-136zM1006 936q0 24 -9.5 46t-25.5 38t-38 25.5t-46 9.5h-172v-346h172q24 0 46 9.5t38 25.5t25.5 38t9.5 47v107z
" />
    <glyph glyph-name="macron" unicode="&#xaf;" horiz-adv-x="1010" 
d="M205 1329h600v-98h-600v98z" />
    <glyph glyph-name="degree" unicode="&#xb0;" horiz-adv-x="856" 
d="M143 1169q0 59 22.5 111t61 90.5t90.5 61t111 22.5t111 -22.5t90.5 -61t61 -90.5t22.5 -111t-22.5 -110.5t-61 -90t-90.5 -61t-111 -22.5t-111 22.5t-90.5 61t-61 90t-22.5 110.5zM258 1169q0 -35 13.5 -66.5t36.5 -55t54 -37t66 -13.5t66 13.5t54 37t36.5 55t13.5 66.5
q0 36 -13.5 67t-36.5 54.5t-54 37t-66 13.5t-66 -13.5t-54 -37t-36.5 -54.5t-13.5 -67z" />
    <glyph glyph-name="plusminus" unicode="&#xb1;" horiz-adv-x="1188" 
d="M528 205v448h-446v129h446v447h129v-447h449v-129h-449v-448h449v-129h-1024v129h446z" />
    <glyph glyph-name="twosuperior" unicode="&#xb2;" horiz-adv-x="692" 
d="M340 1346q-35 0 -59.5 -24.5t-24.5 -59.5v-48l-98 13v35q0 38 14.5 70.5t38.5 57t56.5 38.5t68.5 14h29q38 0 70.5 -13.5t56.5 -38t37.5 -59.5t13.5 -78q0 -33 -10 -68.5t-26.5 -70.5t-37.5 -69t-43 -64q-52 -71 -117 -139h240v-97h-406v78q85 69 151 142q28 31 55 66.5
t48 72.5t34 75t13 74q0 47 -24.5 70t-57.5 23h-22z" />
    <glyph glyph-name="threesuperior" unicode="&#xb3;" horiz-adv-x="672" 
d="M528 915q0 -36 -13.5 -68.5t-37.5 -56.5t-56.5 -38.5t-70.5 -14.5h-28q-38 0 -70.5 14.5t-56.5 38.5t-38 56.5t-14 68.5v35l99 15v-50q0 -34 24.5 -57.5t59.5 -23.5h20q35 0 59.5 23.5t24.5 57.5v54q0 35 -24.5 59.5t-59.5 24.5h-63v96h63q18 0 33 6.5t26.5 17.5t18 26
t6.5 32v33q0 17 -6.5 32t-18 26t-26.5 17.5t-33 6.5h-20q-18 0 -33 -6.5t-26.5 -17.5t-18 -26t-6.5 -32v-50l-99 15v35q0 36 14 68.5t38 56.5t56.5 38.5t70.5 14.5h28q38 0 70.5 -14.5t56.5 -38.5t37.5 -56.5t13.5 -68.5v-23q0 -91 -65 -141q28 -25 46.5 -62t18.5 -77v-46v0
z" />
    <glyph glyph-name="acute" unicode="&#xb4;" horiz-adv-x="778" 
d="M297 1188h-92l164 246h204z" />
    <glyph glyph-name="mu" unicode="&#xb5;" 
d="M123 1024h123v-750q0 -37 14 -69.5t38 -56.5t56.5 -38t69.5 -14h82q37 0 69.5 14t56.5 38t38 56.5t14 69.5v750h123v-1024h-41l-68 104q-42 -57 -105 -90.5t-138 -33.5h-31q-51 0 -96 15.5t-82 43.5v-334h-123v1319z" />
    <glyph glyph-name="paragraph" unicode="&#xb6;" horiz-adv-x="1155" 
d="M686 -410h-129v1043h-102q-73 0 -137.5 27.5t-112.5 75.5t-75.5 112t-27.5 137v96q0 73 27.5 137.5t75.5 112.5t112.5 75.5t137.5 27.5h536v-1844h-129v1721h-176v-1721z" />
    <glyph glyph-name="periodcentered" unicode="&#xb7;" horiz-adv-x="440" 
d="M143 655v154h154v-154h-154z" />
    <glyph glyph-name="cedilla" unicode="&#xb8;" horiz-adv-x="741" 
d="M416 0h86l-60 -102q9 -4 25 -14.5t31.5 -28.5t27 -43t11.5 -58q0 -38 -14 -69t-38.5 -52.5t-58.5 -33t-74 -11.5q-45 0 -81.5 17.5t-65.5 46.5l47 72q5 -6 14 -14t22.5 -15t30 -12t35.5 -5q37 0 62.5 21t25.5 59q0 24 -9.5 42t-26 30t-37.5 17t-45 3z" />
    <glyph glyph-name="onesuperior" unicode="&#xb9;" horiz-adv-x="694" 
d="M143 745v97h156v485l-156 -65v100l174 72h80v-592h154v-97h-408z" />
    <glyph glyph-name="ordmasculine" unicode="&#xba;" horiz-adv-x="717" 
d="M573 973q0 -39 -15 -74t-40.5 -61t-60 -41t-74.5 -15h-49q-40 0 -75 15t-60.5 41t-40.5 61t-15 74v278q0 39 15 74t40.5 61t60.5 41t75 15h49q40 0 74.5 -15t60 -41t40.5 -61t15 -74v-278v0zM479 1255q0 20 -7.5 37.5t-20.5 30.5t-30.5 21t-37.5 8h-49q-20 0 -37.5 -8
t-30.5 -21t-20.5 -30.5t-7.5 -37.5v-286q0 -19 7.5 -36.5t20.5 -31t30.5 -21.5t37.5 -8h49q20 0 37.5 8t30.5 21.5t20.5 31t7.5 36.5v286zM143 631h430v-78h-430v78z" />
    <glyph glyph-name="guillemotright" unicode="&#xbb;" horiz-adv-x="961" 
d="M123 125l250 342l-250 342l41 41l377 -383l-377 -383zM461 125l250 342l-250 342l41 41l377 -383l-377 -383z" />
    <glyph glyph-name="onequarter" unicode="&#xbc;" horiz-adv-x="1364" 
d="M1165 119v-119h-90v119h-260v47l293 520h57v-479h56v-88h-56zM1075 449l-133 -242h133v242zM287 0l817 1434h115l-818 -1434h-114zM143 745v97h156v485l-156 -65v100l174 72h80v-592h154v-97h-408z" />
    <glyph glyph-name="onehalf" unicode="&#xbd;" horiz-adv-x="1448" 
d="M143 745v97h156v485l-156 -65v100l174 72h80v-592h154v-97h-408zM1096 600q-35 0 -59.5 -24.5t-24.5 -59.5v-47l-99 12v35q0 38 14.5 70.5t39 57t57 38.5t68.5 14h28q38 0 70.5 -13t56.5 -37.5t37.5 -59.5t13.5 -78q0 -33 -10 -68.5t-26.5 -71t-37 -69.5t-42.5 -64
q-51 -71 -117 -139h240v-96h-406v78q85 69 151 142q28 31 55 66.5t48 72.5t34 75t13 74q0 46 -25 69t-57 23h-22zM287 0l817 1434h115l-818 -1434h-114z" />
    <glyph glyph-name="threequarters" unicode="&#xbe;" horiz-adv-x="1364" 
d="M528 915q0 -36 -13.5 -68.5t-37.5 -56.5t-56.5 -38.5t-70.5 -14.5h-28q-38 0 -70.5 14.5t-56.5 38.5t-38 56.5t-14 68.5v35l99 15v-50q0 -34 24.5 -57.5t59.5 -23.5h20q35 0 59.5 23.5t24.5 57.5v54q0 35 -24.5 59.5t-59.5 24.5h-63v96h63q18 0 33 6.5t26.5 17.5t18 26
t6.5 32v33q0 17 -6.5 32t-18 26t-26.5 17.5t-33 6.5h-20q-18 0 -33 -6.5t-26.5 -17.5t-18 -26t-6.5 -32v-50l-99 15v35q0 36 14 68.5t38 56.5t56.5 38.5t70.5 14.5h28q38 0 70.5 -14.5t56.5 -38.5t37.5 -56.5t13.5 -68.5v-23q0 -91 -65 -141q28 -25 46.5 -62t18.5 -77v-46v0
zM1165 119v-119h-90v119h-260v47l293 520h57v-479h56v-88h-56zM1075 449l-133 -242h133v242zM287 0l817 1434h115l-818 -1434h-114z" />
    <glyph glyph-name="questiondown" unicode="&#xbf;" horiz-adv-x="950" 
d="M618 1024v-154h-153v154h153zM477 590h129v-39q0 -66 -16 -115t-42.5 -86t-60 -66t-69 -55.5t-69 -53.5t-60 -60t-42.5 -75t-16 -99v-19q0 -48 18 -89.5t49.5 -72.5t73 -49t89.5 -18h28q48 0 89.5 18t73 49t49.5 72.5t18 89.5v58l129 -21v-37q0 -73 -27.5 -137
t-75.5 -112t-112 -75.5t-137 -27.5h-41q-73 0 -137.5 27.5t-112.5 75.5t-75.5 112t-27.5 137v19q0 69 16 121t42.5 92t60 71t69 58t69 53t60 57t42.5 69t16 89v39z" />
    <glyph glyph-name="Agrave" unicode="&#xc0;" horiz-adv-x="950" 
d="M702 334h-454l-94 -334h-134l420 1434h68l422 -1434h-133zM283 457h385l-189 661l-4 53l-4 -53zM250 1843h205l163 -246h-92z" />
    <glyph glyph-name="Aacute" unicode="&#xc1;" horiz-adv-x="950" 
d="M702 334h-454l-94 -334h-134l420 1434h68l422 -1434h-133zM283 457h385l-189 661l-4 53l-4 -53zM424 1597h-92l164 246h204z" />
    <glyph glyph-name="Acircumflex" unicode="&#xc2;" horiz-adv-x="950" 
d="M702 334h-454l-94 -334h-134l420 1434h68l422 -1434h-133zM283 457h385l-189 661l-4 53l-4 -53zM741 1597h-123l-143 164l-143 -164h-123l205 246h123z" />
    <glyph glyph-name="Atilde" unicode="&#xc3;" horiz-adv-x="950" 
d="M702 334h-454l-94 -334h-134l420 1434h68l422 -1434h-133zM283 457h385l-189 661l-4 53l-4 -53zM612 1729q42 0 64 31.5t22 82.5h95q0 -45 -11.5 -84t-34.5 -68t-57.5 -46t-79.5 -17q-48 0 -84.5 18t-68 39.5t-60 39.5t-59.5 18q-42 0 -63 -31.5t-21 -81.5h-94
q0 45 11 83.5t33.5 67.5t57 45.5t80.5 16.5q45 0 79.5 -18t65 -39t60.5 -39t65 -18z" />
    <glyph glyph-name="Adieresis" unicode="&#xc4;" horiz-adv-x="950" 
d="M702 334h-454l-94 -334h-134l420 1434h68l422 -1434h-133zM283 457h385l-189 661l-4 53l-4 -53zM205 1640v154h153v-154h-153zM592 1640v154h153v-154h-153z" />
    <glyph glyph-name="Aring" unicode="&#xc5;" horiz-adv-x="950" 
d="M264 1546q0 44 16.5 82.5t45 67.5t67 46t82.5 17t82.5 -17t67.5 -46t46 -67.5t17 -82.5q0 -36 -11.5 -68.5t-32 -59.5t-48.5 -46.5t-61 -28.5l395 -1343h-133l-95 334h-454l-94 -334h-134l394 1343q-33 10 -60.5 29.5t-47.5 46t-31 59t-11 68.5zM283 457h385l-189 661
l-4 53l-4 -53zM367 1546q0 -22 8.5 -42t23.5 -35t34.5 -24t41.5 -9q23 0 43.5 9t35.5 24t23.5 35t8.5 42q0 23 -8.5 43.5t-23.5 36t-35.5 24.5t-43.5 9q-22 0 -41.5 -9t-34.5 -24.5t-23.5 -36t-8.5 -43.5z" />
    <glyph glyph-name="AE" unicode="&#xc6;" horiz-adv-x="1767" 
d="M879 0v334h-527l-198 -334h-134l859 1434h807v-123h-678v-533h548v-123h-548v-532h678v-123h-807zM879 457v772l-21 -53l-432 -719h453z" />
    <glyph glyph-name="Ccedilla" unicode="&#xc7;" horiz-adv-x="1073" 
d="M508 -20h-12q-73 0 -137.5 27.5t-112.5 75.5t-75.5 112t-27.5 137v770q0 73 27.5 137t75.5 112t112.5 75.5t137.5 27.5h102q73 0 137 -27.5t112 -75.5t75.5 -112t27.5 -137v-58l-129 -20v78q0 48 -18 89.5t-49 72.5t-72.5 49t-89.5 18h-90q-48 0 -89.5 -18t-73 -49
t-49.5 -72.5t-18 -89.5v-770q0 -48 18 -89.5t49.5 -73t73 -49.5t89.5 -18h90q48 0 89.5 18t72.5 49.5t49 73t18 89.5v78l129 -21v-57q0 -73 -27.5 -137t-75.5 -112t-112 -75.5t-137 -27.5h-4l-47 -82q9 -4 25 -14.5t31 -28.5t26.5 -43t11.5 -58q0 -38 -14 -69t-38.5 -52.5
t-58 -33t-73.5 -11.5q-45 0 -82 17.5t-66 46.5l47 72q5 -6 14.5 -14t23 -15t30 -12t35.5 -5q37 0 62.5 21t25.5 59q0 24 -9.5 42t-26 30t-38 17t-45.5 3z" />
    <glyph glyph-name="Egrave" unicode="&#xc8;" horiz-adv-x="1053" 
d="M164 0v1434h807v-123h-678v-533h549v-123h-549v-532h678v-123h-807zM301 1843h205l164 -246h-92z" />
    <glyph glyph-name="Eacute" unicode="&#xc9;" horiz-adv-x="1053" 
d="M164 0v1434h807v-123h-678v-533h549v-123h-549v-532h678v-123h-807zM516 1597h-92l164 246h205z" />
    <glyph glyph-name="Ecircumflex" unicode="&#xca;" horiz-adv-x="1053" 
d="M164 0v1434h807v-123h-678v-533h549v-123h-549v-532h678v-123h-807zM834 1597h-123l-144 164l-143 -164h-123l205 246h123z" />
    <glyph glyph-name="Edieresis" unicode="&#xcb;" horiz-adv-x="1053" 
d="M164 0v1434h807v-123h-678v-533h549v-123h-549v-532h678v-123h-807zM256 1640v154h154v-154h-154zM643 1640v154h154v-154h-154z" />
    <glyph glyph-name="Igrave" unicode="&#xcc;" horiz-adv-x="457" 
d="M164 0v1434h129v-1434h-129zM4 1843h205l164 -246h-92z" />
    <glyph glyph-name="Iacute" unicode="&#xcd;" horiz-adv-x="457" 
d="M164 0v1434h129v-1434h-129zM178 1597h-92l164 246h205z" />
    <glyph glyph-name="Icircumflex" unicode="&#xce;" horiz-adv-x="457" 
d="M164 0v1434h129v-1434h-129zM496 1597h-123l-144 164l-143 -164h-123l205 246h123z" />
    <glyph glyph-name="Idieresis" unicode="&#xcf;" horiz-adv-x="457" 
d="M164 0v1434h129v-1434h-129zM-41 1640v154h154v-154h-154zM346 1640v154h154v-154h-154z" />
    <glyph glyph-name="Eth" unicode="&#xd0;" horiz-adv-x="1139" 
d="M188 686v748h455q73 0 137 -27.5t112 -75.5t75.5 -112.5t27.5 -137.5v-729q0 -73 -27.5 -137t-75.5 -112t-112 -75.5t-137 -27.5h-455v584h-127v102h127zM866 1081q0 48 -18 89.5t-49 73t-72.5 49.5t-89.5 18h-320v-625h240v-102h-240v-461h320q48 0 89.5 18t72.5 49
t49 72.5t18 89.5v729z" />
    <glyph glyph-name="Ntilde" unicode="&#xd1;" horiz-adv-x="1135" 
d="M903 0l-598 1044l-12 62v-1106h-129v1434h67l598 -1045l13 -61v1106h129v-1434h-68zM702 1729q42 0 64 31.5t22 82.5h95q0 -45 -11.5 -84t-34.5 -68t-57.5 -46t-79.5 -17q-48 0 -84.5 18t-68 39.5t-60 39.5t-59.5 18q-42 0 -63 -31.5t-21 -81.5h-94q0 45 11 83.5
t33.5 67.5t57 45.5t80.5 16.5q45 0 79.5 -18t65 -39t60.5 -39t65 -18z" />
    <glyph glyph-name="Ograve" unicode="&#xd2;" horiz-adv-x="1094" 
d="M950 332q0 -73 -27.5 -137t-75.5 -112t-112 -75.5t-137 -27.5h-102q-73 0 -137.5 27.5t-112.5 75.5t-75.5 112t-27.5 137v770q0 73 27.5 137t75.5 112t112.5 75.5t137.5 27.5h102q73 0 137 -27.5t112 -75.5t75.5 -112t27.5 -137v-770v0zM821 1102q0 48 -18 89.5t-49 72.5
t-72.5 49t-89.5 18h-90q-48 0 -89.5 -18t-73 -49t-49.5 -72.5t-18 -89.5v-770q0 -48 18 -89.5t49.5 -73t73 -49.5t89.5 -18h90q48 0 89.5 18t72.5 49.5t49 73t18 89.5v770zM342 1843h205l164 -246h-93z" />
    <glyph glyph-name="Oacute" unicode="&#xd3;" horiz-adv-x="1094" 
d="M950 332q0 -73 -27.5 -137t-75.5 -112t-112 -75.5t-137 -27.5h-102q-73 0 -137.5 27.5t-112.5 75.5t-75.5 112t-27.5 137v770q0 73 27.5 137t75.5 112t112.5 75.5t137.5 27.5h102q73 0 137 -27.5t112 -75.5t75.5 -112t27.5 -137v-770v0zM821 1102q0 48 -18 89.5t-49 72.5
t-72.5 49t-89.5 18h-90q-48 0 -89.5 -18t-73 -49t-49.5 -72.5t-18 -89.5v-770q0 -48 18 -89.5t49.5 -73t73 -49.5t89.5 -18h90q48 0 89.5 18t72.5 49.5t49 73t18 89.5v770zM516 1597h-92l164 246h205z" />
    <glyph glyph-name="Ocircumflex" unicode="&#xd4;" horiz-adv-x="1094" 
d="M950 332q0 -73 -27.5 -137t-75.5 -112t-112 -75.5t-137 -27.5h-102q-73 0 -137.5 27.5t-112.5 75.5t-75.5 112t-27.5 137v770q0 73 27.5 137t75.5 112t112.5 75.5t137.5 27.5h102q73 0 137 -27.5t112 -75.5t75.5 -112t27.5 -137v-770v0zM821 1102q0 48 -18 89.5t-49 72.5
t-72.5 49t-89.5 18h-90q-48 0 -89.5 -18t-73 -49t-49.5 -72.5t-18 -89.5v-770q0 -48 18 -89.5t49.5 -73t73 -49.5t89.5 -18h90q48 0 89.5 18t72.5 49.5t49 73t18 89.5v770zM813 1597h-123l-143 164l-144 -164h-122l204 246h123z" />
    <glyph glyph-name="Otilde" unicode="&#xd5;" horiz-adv-x="1094" 
d="M950 332q0 -73 -27.5 -137t-75.5 -112t-112 -75.5t-137 -27.5h-102q-73 0 -137.5 27.5t-112.5 75.5t-75.5 112t-27.5 137v770q0 73 27.5 137t75.5 112t112.5 75.5t137.5 27.5h102q73 0 137 -27.5t112 -75.5t75.5 -112t27.5 -137v-770v0zM821 1102q0 48 -18 89.5t-49 72.5
t-72.5 49t-89.5 18h-90q-48 0 -89.5 -18t-73 -49t-49.5 -72.5t-18 -89.5v-770q0 -48 18 -89.5t49.5 -73t73 -49.5t89.5 -18h90q48 0 89.5 18t72.5 49.5t49 73t18 89.5v770zM682 1729q42 0 64 31.5t22 82.5h94q0 -45 -11.5 -84t-34 -68t-57 -46t-79.5 -17q-48 0 -85 18
t-68.5 39.5t-60 39.5t-58.5 18q-42 0 -63 -31.5t-21 -81.5h-95q0 45 11.5 83.5t34 67.5t57 45.5t80.5 16.5q44 0 78.5 -18t65.5 -39t61 -39t65 -18z" />
    <glyph glyph-name="Odieresis" unicode="&#xd6;" horiz-adv-x="1094" 
d="M950 332q0 -73 -27.5 -137t-75.5 -112t-112 -75.5t-137 -27.5h-102q-73 0 -137.5 27.5t-112.5 75.5t-75.5 112t-27.5 137v770q0 73 27.5 137t75.5 112t112.5 75.5t137.5 27.5h102q73 0 137 -27.5t112 -75.5t75.5 -112t27.5 -137v-770v0zM821 1102q0 48 -18 89.5t-49 72.5
t-72.5 49t-89.5 18h-90q-48 0 -89.5 -18t-73 -49t-49.5 -72.5t-18 -89.5v-770q0 -48 18 -89.5t49.5 -73t73 -49.5t89.5 -18h90q48 0 89.5 18t72.5 49.5t49 73t18 89.5v770zM276 1640v154h154v-154h-154zM664 1640v154h153v-154h-153z" />
    <glyph glyph-name="multiply" unicode="&#xd7;" horiz-adv-x="1196" 
d="M195 1212l403 -403l403 403l91 -92l-402 -401l404 -406l-93 -90l-403 404l-403 -404l-93 90l404 406l-402 401z" />
    <glyph glyph-name="Oslash" unicode="&#xd8;" horiz-adv-x="1094" 
d="M102 -61l99 198q-28 42 -43 91.5t-15 103.5v770q0 73 27.5 137t75.5 112t112.5 75.5t137.5 27.5h102q63 0 120.5 -21.5t102.5 -58.5l62 121h108l-100 -201q28 -42 43.5 -90t15.5 -102v-770q0 -73 -27.5 -137t-75.5 -112t-112 -75.5t-137 -27.5h-102q-65 0 -122 20.5
t-104 58.5l-59 -120h-109zM821 1102q0 11 -1 22.5t-3 22.5l-487 -969q32 -35 75.5 -55.5t96.5 -20.5h90q48 0 89.5 18t72.5 49.5t49 73t18 89.5v770zM272 332q0 -13 0.5 -23.5t3.5 -21.5l486 968q-31 36 -75 56t-95 20h-90q-48 0 -89.5 -18t-73 -49t-49.5 -72.5t-18 -89.5
v-770v0z" />
    <glyph glyph-name="Ugrave" unicode="&#xd9;" horiz-adv-x="1094" 
d="M950 332q0 -73 -27.5 -137t-75.5 -112t-112 -75.5t-137 -27.5h-102q-73 0 -137.5 27.5t-112.5 75.5t-75.5 112t-27.5 137v1102h129v-1102q0 -48 18 -89.5t49.5 -73t73 -49.5t89.5 -18h90q48 0 89.5 18t72.5 49.5t49 73t18 89.5v1102h129v-1102v0zM301 1843h205l164 -246
h-92z" />
    <glyph glyph-name="Uacute" unicode="&#xda;" horiz-adv-x="1094" 
d="M950 332q0 -73 -27.5 -137t-75.5 -112t-112 -75.5t-137 -27.5h-102q-73 0 -137.5 27.5t-112.5 75.5t-75.5 112t-27.5 137v1102h129v-1102q0 -48 18 -89.5t49.5 -73t73 -49.5t89.5 -18h90q48 0 89.5 18t72.5 49.5t49 73t18 89.5v1102h129v-1102v0zM516 1597h-92l164 246
h205z" />
    <glyph glyph-name="Ucircumflex" unicode="&#xdb;" horiz-adv-x="1094" 
d="M950 332q0 -73 -27.5 -137t-75.5 -112t-112 -75.5t-137 -27.5h-102q-73 0 -137.5 27.5t-112.5 75.5t-75.5 112t-27.5 137v1102h129v-1102q0 -48 18 -89.5t49.5 -73t73 -49.5t89.5 -18h90q48 0 89.5 18t72.5 49.5t49 73t18 89.5v1102h129v-1102v0zM813 1597h-123l-143 164
l-144 -164h-122l204 246h123z" />
    <glyph glyph-name="Udieresis" unicode="&#xdc;" horiz-adv-x="1094" 
d="M950 332q0 -73 -27.5 -137t-75.5 -112t-112 -75.5t-137 -27.5h-102q-73 0 -137.5 27.5t-112.5 75.5t-75.5 112t-27.5 137v1102h129v-1102q0 -48 18 -89.5t49.5 -73t73 -49.5t89.5 -18h90q48 0 89.5 18t72.5 49.5t49 73t18 89.5v1102h129v-1102v0zM276 1640v154h154v-154
h-154zM664 1640v154h153v-154h-153z" />
    <glyph glyph-name="Yacute" unicode="&#xdd;" horiz-adv-x="950" 
d="M541 686v-686h-129v684l-371 750h139l295 -596l295 596h139zM465 1597h-92l164 246h204z" />
    <glyph glyph-name="Thorn" unicode="&#xde;" horiz-adv-x="1053" 
d="M971 682q0 -73 -27.5 -137t-75.5 -112t-112.5 -75.5t-137.5 -27.5h-325v-330h-129v1434h129v-283h325q73 0 137.5 -27.5t112.5 -75.5t75.5 -112t27.5 -137v-117v0zM842 799q0 48 -18 89.5t-49.5 72.5t-73 49t-89.5 18h-319v-575h319q48 0 89.5 18t73 49t49.5 72.5
t18 89.5v117z" />
    <glyph glyph-name="germandbls" unicode="&#xdf;" horiz-adv-x="1053" 
d="M471 117h111q48 0 89.5 18t72.5 49t49 72.5t18 89.5v131q0 48 -18 89.5t-49 73t-72.5 49.5t-89.5 18h-111v116h111q48 0 89.5 18t72.5 49.5t49 73t18 89.5v55q0 48 -18 89.5t-49 72.5t-72.5 49t-89.5 18h-60q-48 0 -89.5 -18t-72.5 -49t-49 -72.5t-18 -89.5v-1108h-123
v1102q0 73 27 137t73.5 112t109.5 75.5t136 27.5h66q73 0 137 -27.5t112 -75.5t75.5 -112t27.5 -137v-25q0 -51 -13.5 -97.5t-38 -86.5t-59 -72.5t-75.5 -54.5q41 -22 75.5 -54.5t59 -72.5t38 -86.5t13.5 -97.5v-103q0 -73 -27.5 -137t-75.5 -112t-112 -75.5t-137 -27.5
h-111v117z" />
    <glyph glyph-name="agrave" unicode="&#xe0;" 
d="M766 0l-68 102q-42 -55 -105 -88.5t-138 -33.5h-31q-62 0 -117 23.5t-96 64.5t-64.5 96t-23.5 117v10q0 62 23.5 117t64.5 96t96 64.5t117 23.5h260v158q0 37 -14 69.5t-38 56.5t-56.5 38t-69.5 14h-72q-37 0 -69.5 -14t-56.5 -38t-38 -56.5t-14 -69.5v-37l-123 20v10
q0 62 23.5 117t64.5 96t96 64.5t117 23.5h72q62 0 117 -23.5t96 -64.5t64.5 -96t23.5 -117v-743h-41zM684 496h-260q-37 0 -69.5 -14t-56.5 -38.5t-38 -57t-14 -69.5v-43q0 -37 14 -69.5t38 -56.5t56.5 -38t69.5 -14h82q37 0 69.5 14t56.5 38t38 56.5t14 69.5v222zM240 1434
h204l164 -246h-92z" />
    <glyph glyph-name="aacute" unicode="&#xe1;" 
d="M766 0l-68 102q-42 -55 -105 -88.5t-138 -33.5h-31q-62 0 -117 23.5t-96 64.5t-64.5 96t-23.5 117v10q0 62 23.5 117t64.5 96t96 64.5t117 23.5h260v158q0 37 -14 69.5t-38 56.5t-56.5 38t-69.5 14h-72q-37 0 -69.5 -14t-56.5 -38t-38 -56.5t-14 -69.5v-37l-123 20v10
q0 62 23.5 117t64.5 96t96 64.5t117 23.5h72q62 0 117 -23.5t96 -64.5t64.5 -96t23.5 -117v-743h-41zM684 496h-260q-37 0 -69.5 -14t-56.5 -38.5t-38 -57t-14 -69.5v-43q0 -37 14 -69.5t38 -56.5t56.5 -38t69.5 -14h82q37 0 69.5 14t56.5 38t38 56.5t14 69.5v222zM414 1188
h-92l163 246h205z" />
    <glyph glyph-name="acircumflex" unicode="&#xe2;" 
d="M766 0l-68 102q-42 -55 -105 -88.5t-138 -33.5h-31q-62 0 -117 23.5t-96 64.5t-64.5 96t-23.5 117v10q0 62 23.5 117t64.5 96t96 64.5t117 23.5h260v158q0 37 -14 69.5t-38 56.5t-56.5 38t-69.5 14h-72q-37 0 -69.5 -14t-56.5 -38t-38 -56.5t-14 -69.5v-37l-123 20v10
q0 62 23.5 117t64.5 96t96 64.5t117 23.5h72q62 0 117 -23.5t96 -64.5t64.5 -96t23.5 -117v-743h-41zM684 496h-260q-37 0 -69.5 -14t-56.5 -38.5t-38 -57t-14 -69.5v-43q0 -37 14 -69.5t38 -56.5t56.5 -38t69.5 -14h82q37 0 69.5 14t56.5 38t38 56.5t14 69.5v222zM752 1188
h-123l-144 164l-143 -164h-123l205 246h123z" />
    <glyph glyph-name="atilde" unicode="&#xe3;" 
d="M766 0l-68 102q-42 -55 -105 -88.5t-138 -33.5h-31q-62 0 -117 23.5t-96 64.5t-64.5 96t-23.5 117v10q0 62 23.5 117t64.5 96t96 64.5t117 23.5h260v158q0 37 -14 69.5t-38 56.5t-56.5 38t-69.5 14h-72q-37 0 -69.5 -14t-56.5 -38t-38 -56.5t-14 -69.5v-37l-123 20v10
q0 62 23.5 117t64.5 96t96 64.5t117 23.5h72q62 0 117 -23.5t96 -64.5t64.5 -96t23.5 -117v-743h-41zM684 496h-260q-37 0 -69.5 -14t-56.5 -38.5t-38 -57t-14 -69.5v-43q0 -37 14 -69.5t38 -56.5t56.5 -38t69.5 -14h82q37 0 69.5 14t56.5 38t38 56.5t14 69.5v222zM602 1319
q42 0 64 32t22 83h94q0 -45 -11.5 -84t-34 -68t-57 -46t-79.5 -17q-48 0 -84.5 18t-68 39t-60 39t-59.5 18q-42 0 -63 -31.5t-21 -80.5h-94q0 44 11 83t33.5 68t57 45.5t80.5 16.5q45 0 79.5 -18t65 -39.5t60.5 -39.5t65 -18z" />
    <glyph glyph-name="adieresis" unicode="&#xe4;" 
d="M766 0l-68 102q-42 -55 -105 -88.5t-138 -33.5h-31q-62 0 -117 23.5t-96 64.5t-64.5 96t-23.5 117v10q0 62 23.5 117t64.5 96t96 64.5t117 23.5h260v158q0 37 -14 69.5t-38 56.5t-56.5 38t-69.5 14h-72q-37 0 -69.5 -14t-56.5 -38t-38 -56.5t-14 -69.5v-37l-123 20v10
q0 62 23.5 117t64.5 96t96 64.5t117 23.5h72q62 0 117 -23.5t96 -64.5t64.5 -96t23.5 -117v-743h-41zM684 496h-260q-37 0 -69.5 -14t-56.5 -38.5t-38 -57t-14 -69.5v-43q0 -37 14 -69.5t38 -56.5t56.5 -38t69.5 -14h82q37 0 69.5 14t56.5 38t38 56.5t14 69.5v222zM215 1231
v153h154v-153h-154zM602 1231v153h154v-153h-154z" />
    <glyph glyph-name="aring" unicode="&#xe5;" 
d="M766 0l-68 102q-42 -55 -105 -88.5t-138 -33.5h-31q-62 0 -117 23.5t-96 64.5t-64.5 96t-23.5 117v10q0 62 23.5 117t64.5 96t96 64.5t117 23.5h260v158q0 37 -14 69.5t-38 56.5t-56.5 38t-69.5 14h-72q-37 0 -69.5 -14t-56.5 -38t-38 -56.5t-14 -69.5v-37l-123 20v10
q0 62 23.5 117t64.5 96t96 64.5t117 23.5h72q62 0 117 -23.5t96 -64.5t64.5 -96t23.5 -117v-743h-41zM684 496h-260q-37 0 -69.5 -14t-56.5 -38.5t-38 -57t-14 -69.5v-43q0 -37 14 -69.5t38 -56.5t56.5 -38t69.5 -14h82q37 0 69.5 14t56.5 38t38 56.5t14 69.5v222zM258 1358
q0 44 16.5 82.5t45 67.5t67 46t82.5 17t82.5 -17t67.5 -46t46 -67.5t17 -82.5t-17 -82.5t-46 -67t-67.5 -45t-82.5 -16.5t-82.5 16.5t-67 45t-45 67t-16.5 82.5zM360 1358q0 -22 8.5 -42.5t23.5 -35.5t35 -24t42 -9q23 0 43 9t35 24t24 35.5t9 42.5q0 23 -9 43.5t-24 35.5
t-35 24t-43 9q-22 0 -42 -9t-35 -24t-23.5 -35.5t-8.5 -43.5z" />
    <glyph glyph-name="ae" unicode="&#xe6;" horiz-adv-x="1491" 
d="M1368 281q0 -62 -23.5 -117t-64.5 -96t-96 -64.5t-117 -23.5h-82q-42 0 -81.5 11t-73.5 31t-62 48.5t-47 62.5q-28 -45 -59.5 -74.5t-66 -47t-70 -24.5t-70.5 -7h-31q-62 0 -117 23.5t-96 64.5t-64.5 96t-23.5 117v10q0 62 23.5 117t64.5 96t96 64.5t117 23.5h260v164
q-1 35 -15.5 66.5t-38.5 55t-56 37t-68 13.5h-72q-37 0 -69.5 -14t-56.5 -38t-38 -56.5t-14 -69.5v-37l-123 20v10q0 62 23.5 117t64.5 96t96 64.5t117 23.5h72q72 0 134.5 -32.5t104.5 -87.5q42 55 104 87.5t136 32.5h82q62 0 117 -23.5t96 -64.5t64.5 -96t23.5 -117v-241
h-561v-228q0 -37 14 -69.5t38 -56.5t56.5 -38t69.5 -14h82q37 0 69.5 14t56.5 38t38 56.5t14 69.5v68l123 -20v-41v0zM684 496h-260q-37 0 -69.5 -14t-56.5 -38.5t-38 -57t-14 -69.5v-43q0 -37 14 -69.5t38 -56.5t56.5 -38t69.5 -14h82q37 0 69.5 14t56.5 38t38 56.5
t14 69.5v222zM1245 750q0 37 -14 69.5t-38 56.5t-56.5 38t-69.5 14h-82q-36 0 -68 -13.5t-56 -37t-38.5 -55t-15.5 -66.5v-158h438v152z" />
    <glyph glyph-name="ccedilla" unicode="&#xe7;" 
d="M436 -20h-12q-62 0 -117 23.5t-96 64.5t-64.5 96t-23.5 117v462q0 62 23.5 117t64.5 96t96 64.5t117 23.5h82q62 0 117 -23.5t96 -64.5t64.5 -96t23.5 -117v-41l-123 -20v68q0 37 -14 69.5t-38 56.5t-56.5 38t-69.5 14h-82q-37 0 -69.5 -14t-56.5 -38t-38 -56.5
t-14 -69.5v-476q0 -37 14 -69.5t38 -56.5t56.5 -38t69.5 -14h82q37 0 69.5 14t56.5 38t38 56.5t14 69.5v68l123 -20v-41q0 -60 -22.5 -113t-61 -93.5t-90.5 -65.5t-111 -29l-47 -82q9 -4 25 -14.5t31.5 -28.5t26.5 -43t11 -58q0 -38 -13.5 -69t-38 -52.5t-58.5 -33
t-74 -11.5q-45 0 -81.5 17.5t-65.5 46.5l47 72q5 -6 14 -14t22.5 -15t30 -12t35.5 -5q37 0 62.5 21t25.5 59q0 24 -9.5 42t-26 30t-38 17t-45.5 3z" />
    <glyph glyph-name="egrave" unicode="&#xe8;" 
d="M807 281q0 -62 -23.5 -117t-64.5 -96t-96 -64.5t-117 -23.5h-82q-62 0 -117 23.5t-96 64.5t-64.5 96t-23.5 117v462q0 62 23.5 117t64.5 96t96 64.5t117 23.5h82q62 0 117 -23.5t96 -64.5t64.5 -96t23.5 -117v-241h-561v-228q0 -37 14 -69.5t38 -56.5t56.5 -38t69.5 -14
h82q37 0 69.5 14t56.5 38t38 56.5t14 69.5v68l123 -20v-41v0zM684 750q0 37 -14 69.5t-38 56.5t-56.5 38t-69.5 14h-82q-37 0 -69.5 -14t-56.5 -38t-38 -56.5t-14 -69.5v-152h438v152zM240 1434h204l164 -246h-92z" />
    <glyph glyph-name="eacute" unicode="&#xe9;" 
d="M807 281q0 -62 -23.5 -117t-64.5 -96t-96 -64.5t-117 -23.5h-82q-62 0 -117 23.5t-96 64.5t-64.5 96t-23.5 117v462q0 62 23.5 117t64.5 96t96 64.5t117 23.5h82q62 0 117 -23.5t96 -64.5t64.5 -96t23.5 -117v-241h-561v-228q0 -37 14 -69.5t38 -56.5t56.5 -38t69.5 -14
h82q37 0 69.5 14t56.5 38t38 56.5t14 69.5v68l123 -20v-41v0zM684 750q0 37 -14 69.5t-38 56.5t-56.5 38t-69.5 14h-82q-37 0 -69.5 -14t-56.5 -38t-38 -56.5t-14 -69.5v-152h438v152zM414 1188h-92l163 246h205z" />
    <glyph glyph-name="ecircumflex" unicode="&#xea;" 
d="M807 281q0 -62 -23.5 -117t-64.5 -96t-96 -64.5t-117 -23.5h-82q-62 0 -117 23.5t-96 64.5t-64.5 96t-23.5 117v462q0 62 23.5 117t64.5 96t96 64.5t117 23.5h82q62 0 117 -23.5t96 -64.5t64.5 -96t23.5 -117v-241h-561v-228q0 -37 14 -69.5t38 -56.5t56.5 -38t69.5 -14
h82q37 0 69.5 14t56.5 38t38 56.5t14 69.5v68l123 -20v-41v0zM684 750q0 37 -14 69.5t-38 56.5t-56.5 38t-69.5 14h-82q-37 0 -69.5 -14t-56.5 -38t-38 -56.5t-14 -69.5v-152h438v152zM752 1188h-123l-144 164l-143 -164h-123l205 246h123z" />
    <glyph glyph-name="edieresis" unicode="&#xeb;" 
d="M807 281q0 -62 -23.5 -117t-64.5 -96t-96 -64.5t-117 -23.5h-82q-62 0 -117 23.5t-96 64.5t-64.5 96t-23.5 117v462q0 62 23.5 117t64.5 96t96 64.5t117 23.5h82q62 0 117 -23.5t96 -64.5t64.5 -96t23.5 -117v-241h-561v-228q0 -37 14 -69.5t38 -56.5t56.5 -38t69.5 -14
h82q37 0 69.5 14t56.5 38t38 56.5t14 69.5v68l123 -20v-41v0zM684 750q0 37 -14 69.5t-38 56.5t-56.5 38t-69.5 14h-82q-37 0 -69.5 -14t-56.5 -38t-38 -56.5t-14 -69.5v-152h438v152zM215 1231v153h154v-153h-154zM602 1231v153h154v-153h-154z" />
    <glyph glyph-name="igrave" unicode="&#xec;" horiz-adv-x="451" 
d="M164 0v1024h123v-1024h-123zM0 1434h205l164 -246h-93z" />
    <glyph glyph-name="iacute" unicode="&#xed;" horiz-adv-x="451" 
d="M164 0v1024h123v-1024h-123zM174 1188h-92l164 246h205z" />
    <glyph glyph-name="icircumflex" unicode="&#xee;" horiz-adv-x="451" 
d="M164 0v1024h123v-1024h-123zM492 1188h-123l-144 164l-143 -164h-123l205 246h123z" />
    <glyph glyph-name="idieresis" unicode="&#xef;" horiz-adv-x="451" 
d="M164 0v1024h123v-1024h-123zM-45 1231v153h154v-153h-154zM342 1231v153h154v-153h-154z" />
    <glyph glyph-name="eth" unicode="&#xf0;" 
d="M498 1264q-42 49 -90.5 91.5t-98.5 78.5h148q79 -52 151 -138l219 64l21 -66l-197 -57q69 -100 112.5 -225.5t43.5 -268.5v-462q0 -62 -23.5 -117t-64.5 -96t-96 -64.5t-117 -23.5h-82q-62 0 -117 23.5t-96 64.5t-64.5 96t-23.5 117v462q0 62 23.5 117t64.5 96t96 64.5
t117 23.5h82q66 0 127 -28q-29 102 -90 190l-228 -65l-18 65zM684 750q0 37 -14 69.5t-38 56.5t-56.5 38t-69.5 14h-82q-37 0 -69.5 -14t-56.5 -38t-38 -56.5t-14 -69.5v-476q0 -37 14 -69.5t38 -56.5t56.5 -38t69.5 -14h82q37 0 69.5 14t56.5 38t38 56.5t14 69.5v476z" />
    <glyph glyph-name="ntilde" unicode="&#xf1;" 
d="M684 0v750q0 37 -14 69.5t-38 56.5t-56.5 38t-69.5 14h-82q-37 0 -69.5 -14t-56.5 -38t-38 -56.5t-14 -69.5v-750h-123v1024h41l67 -104q42 57 105.5 90.5t138.5 33.5h31q62 0 117 -23.5t96 -64.5t64.5 -96t23.5 -117v-743h-123zM602 1319q42 0 64 32t22 83h94
q0 -45 -11.5 -84t-34 -68t-57 -46t-79.5 -17q-48 0 -84.5 18t-68 39t-60 39t-59.5 18q-42 0 -63 -31.5t-21 -80.5h-94q0 44 11 83t33.5 68t57 45.5t80.5 16.5q45 0 79.5 -18t65 -39.5t60.5 -39.5t65 -18z" />
    <glyph glyph-name="ograve" unicode="&#xf2;" 
d="M807 281q0 -62 -23.5 -117t-64.5 -96t-96 -64.5t-117 -23.5h-82q-62 0 -117 23.5t-96 64.5t-64.5 96t-23.5 117v462q0 62 23.5 117t64.5 96t96 64.5t117 23.5h82q62 0 117 -23.5t96 -64.5t64.5 -96t23.5 -117v-462v0zM684 750q0 37 -14 69.5t-38 56.5t-56.5 38t-69.5 14
h-82q-37 0 -69.5 -14t-56.5 -38t-38 -56.5t-14 -69.5v-476q0 -37 14 -69.5t38 -56.5t56.5 -38t69.5 -14h82q37 0 69.5 14t56.5 38t38 56.5t14 69.5v476zM240 1434h204l164 -246h-92z" />
    <glyph glyph-name="oacute" unicode="&#xf3;" 
d="M807 281q0 -62 -23.5 -117t-64.5 -96t-96 -64.5t-117 -23.5h-82q-62 0 -117 23.5t-96 64.5t-64.5 96t-23.5 117v462q0 62 23.5 117t64.5 96t96 64.5t117 23.5h82q62 0 117 -23.5t96 -64.5t64.5 -96t23.5 -117v-462v0zM684 750q0 37 -14 69.5t-38 56.5t-56.5 38t-69.5 14
h-82q-37 0 -69.5 -14t-56.5 -38t-38 -56.5t-14 -69.5v-476q0 -37 14 -69.5t38 -56.5t56.5 -38t69.5 -14h82q37 0 69.5 14t56.5 38t38 56.5t14 69.5v476zM414 1188h-92l163 246h205z" />
    <glyph glyph-name="ocircumflex" unicode="&#xf4;" 
d="M807 281q0 -62 -23.5 -117t-64.5 -96t-96 -64.5t-117 -23.5h-82q-62 0 -117 23.5t-96 64.5t-64.5 96t-23.5 117v462q0 62 23.5 117t64.5 96t96 64.5t117 23.5h82q62 0 117 -23.5t96 -64.5t64.5 -96t23.5 -117v-462v0zM684 750q0 37 -14 69.5t-38 56.5t-56.5 38t-69.5 14
h-82q-37 0 -69.5 -14t-56.5 -38t-38 -56.5t-14 -69.5v-476q0 -37 14 -69.5t38 -56.5t56.5 -38t69.5 -14h82q37 0 69.5 14t56.5 38t38 56.5t14 69.5v476zM731 1188h-123l-143 164l-143 -164h-123l204 246h123z" />
    <glyph glyph-name="otilde" unicode="&#xf5;" 
d="M807 281q0 -62 -23.5 -117t-64.5 -96t-96 -64.5t-117 -23.5h-82q-62 0 -117 23.5t-96 64.5t-64.5 96t-23.5 117v462q0 62 23.5 117t64.5 96t96 64.5t117 23.5h82q62 0 117 -23.5t96 -64.5t64.5 -96t23.5 -117v-462v0zM684 750q0 37 -14 69.5t-38 56.5t-56.5 38t-69.5 14
h-82q-37 0 -69.5 -14t-56.5 -38t-38 -56.5t-14 -69.5v-476q0 -37 14 -69.5t38 -56.5t56.5 -38t69.5 -14h82q37 0 69.5 14t56.5 38t38 56.5t14 69.5v476zM602 1319q42 0 64 32t22 83h94q0 -45 -11.5 -84t-34 -68t-57 -46t-79.5 -17q-48 0 -84.5 18t-68 39t-60 39t-59.5 18
q-42 0 -63 -31.5t-21 -80.5h-94q0 44 11 83t33.5 68t57 45.5t80.5 16.5q45 0 79.5 -18t65 -39.5t60.5 -39.5t65 -18z" />
    <glyph glyph-name="odieresis" unicode="&#xf6;" 
d="M807 281q0 -62 -23.5 -117t-64.5 -96t-96 -64.5t-117 -23.5h-82q-62 0 -117 23.5t-96 64.5t-64.5 96t-23.5 117v462q0 62 23.5 117t64.5 96t96 64.5t117 23.5h82q62 0 117 -23.5t96 -64.5t64.5 -96t23.5 -117v-462v0zM684 750q0 37 -14 69.5t-38 56.5t-56.5 38t-69.5 14
h-82q-37 0 -69.5 -14t-56.5 -38t-38 -56.5t-14 -69.5v-476q0 -37 14 -69.5t38 -56.5t56.5 -38t69.5 -14h82q37 0 69.5 14t56.5 38t38 56.5t14 69.5v476zM195 1231v153h153v-153h-153zM582 1231v153h153v-153h-153z" />
    <glyph glyph-name="divide" unicode="&#xf7;" horiz-adv-x="1188" 
d="M1106 782v-129h-1024v129h1024zM455 1100q0 29 11 54t30 44t44.5 30t53.5 11q29 0 54 -11t44 -30t30 -44t11 -54q0 -28 -11 -53.5t-30 -44.5t-44 -30t-54 -11q-28 0 -53.5 11t-44.5 30t-30 44.5t-11 53.5zM455 336q0 29 11 54t30 44t44.5 30t53.5 11q29 0 54 -11t44 -30
t30 -44t11 -54q0 -28 -11 -53.5t-30 -44.5t-44 -30t-54 -11q-28 0 -53.5 11t-44.5 30t-30 44.5t-11 53.5z" />
    <glyph glyph-name="oslash" unicode="&#xf8;" horiz-adv-x="932" 
d="M61 -61l109 178q-47 71 -47 164v462q0 62 23.5 117t64.5 96t96 64.5t117 23.5h82q54 0 102 -18t86 -49l68 108h108l-110 -180q21 -35 34 -76t13 -86v-462q0 -62 -23.5 -117t-64.5 -96t-96 -64.5t-117 -23.5h-82q-54 0 -102 17t-86 48l-66 -106h-109zM246 274v-15t2 -15
l385 630q-25 25 -57.5 39.5t-69.5 14.5h-82q-37 0 -69.5 -14t-56.5 -38t-38 -56.5t-14 -69.5v-476v0zM684 750q0 6 -1 13t-1 13l-385 -629q25 -24 57.5 -37.5t69.5 -13.5h82q37 0 69.5 14t56.5 38t38 56.5t14 69.5v476z" />
    <glyph glyph-name="ugrave" unicode="&#xf9;" 
d="M766 0l-68 104q-42 -57 -105 -90.5t-138 -33.5h-31q-62 0 -117 23.5t-96 64.5t-64.5 96t-23.5 117v743h123v-750q0 -37 14 -69.5t38 -56.5t56.5 -38t69.5 -14h82q37 0 69.5 14t56.5 38t38 56.5t14 69.5v750h123v-1024h-41zM199 1434h204l164 -246h-92z" />
    <glyph glyph-name="uacute" unicode="&#xfa;" 
d="M766 0l-68 104q-42 -57 -105 -90.5t-138 -33.5h-31q-62 0 -117 23.5t-96 64.5t-64.5 96t-23.5 117v743h123v-750q0 -37 14 -69.5t38 -56.5t56.5 -38t69.5 -14h82q37 0 69.5 14t56.5 38t38 56.5t14 69.5v750h123v-1024h-41zM455 1188h-93l164 246h205z" />
    <glyph glyph-name="ucircumflex" unicode="&#xfb;" 
d="M766 0l-68 104q-42 -57 -105 -90.5t-138 -33.5h-31q-62 0 -117 23.5t-96 64.5t-64.5 96t-23.5 117v743h123v-750q0 -37 14 -69.5t38 -56.5t56.5 -38t69.5 -14h82q37 0 69.5 14t56.5 38t38 56.5t14 69.5v750h123v-1024h-41zM731 1188h-123l-143 164l-143 -164h-123
l204 246h123z" />
    <glyph glyph-name="udieresis" unicode="&#xfc;" 
d="M766 0l-68 104q-42 -57 -105 -90.5t-138 -33.5h-31q-62 0 -117 23.5t-96 64.5t-64.5 96t-23.5 117v743h123v-750q0 -37 14 -69.5t38 -56.5t56.5 -38t69.5 -14h82q37 0 69.5 14t56.5 38t38 56.5t14 69.5v750h123v-1024h-41zM195 1231v153h153v-153h-153zM582 1231v153h153
v-153h-153z" />
    <glyph glyph-name="yacute" unicode="&#xfd;" horiz-adv-x="807" 
d="M289 -410h-119l182 498l-332 936h123l267 -776l4 -53l4 53l266 776h123zM393 1188h-92l164 246h205z" />
    <glyph glyph-name="thorn" unicode="&#xfe;" 
d="M807 281q0 -62 -23.5 -117t-64.5 -96t-96 -64.5t-117 -23.5h-31q-69 0 -128 28t-101 78v-496h-123v1844h123v-496q42 50 101 78t128 28h31q62 0 117 -23.5t96 -64.5t64.5 -96t23.5 -117v-462v0zM684 750q0 37 -14 69.5t-38 56.5t-56.5 38t-69.5 14h-82q-37 0 -69.5 -14
t-56.5 -38t-38 -56.5t-14 -69.5v-476q0 -37 14 -69.5t38 -56.5t56.5 -38t69.5 -14h82q37 0 69.5 14t56.5 38t38 56.5t14 69.5v476z" />
    <glyph glyph-name="ydieresis" unicode="&#xff;" horiz-adv-x="807" 
d="M289 -410h-119l182 498l-332 936h123l267 -776l4 -53l4 53l266 776h123zM154 1231v153h153v-153h-153zM541 1231v153h153v-153h-153z" />
    <glyph glyph-name="hbar" unicode="&#x127;" 
d="M684 0v750q0 37 -14 69.5t-38 56.5t-56.5 38t-69.5 14h-82q-37 0 -69.5 -14t-56.5 -38t-38 -56.5t-14 -69.5v-750h-123v1188h-123v102h123v144h123v-144h370v-102h-370v-250q42 50 101 78t128 28h31q62 0 117 -23.5t96 -64.5t64.5 -96t23.5 -117v-743h-123z" />
    <glyph glyph-name="Itilde" unicode="&#x128;" horiz-adv-x="457" 
d="M164 0v1434h129v-1434h-129zM365 1729q42 0 64 31.5t22 82.5h94q0 -45 -11.5 -84t-34.5 -68t-57.5 -46t-79.5 -17q-47 0 -84 18t-68.5 39.5t-60 39.5t-59.5 18q-42 0 -63 -31.5t-21 -81.5h-94q0 45 11 83.5t33.5 67.5t57 45.5t80.5 16.5q45 0 79.5 -18t65 -39t60.5 -39
t66 -18z" />
    <glyph glyph-name="itilde" unicode="&#x129;" horiz-adv-x="451" 
d="M164 0v1024h123v-1024h-123zM362 1319q42 0 64.5 32t22.5 83h94q0 -45 -11.5 -84t-34.5 -68t-57.5 -46t-79.5 -17q-48 0 -84.5 18t-68 39t-60 39t-59.5 18q-42 0 -63 -31.5t-21 -80.5h-94q0 44 11 83t33.5 68t57 45.5t80.5 16.5q45 0 79.5 -18t65 -39.5t60.5 -39.5
t65 -18z" />
    <glyph glyph-name="dotlessi" unicode="&#x131;" horiz-adv-x="451" 
d="M164 0v1024h123v-1024h-123z" />
    <glyph glyph-name="IJ" unicode="&#x132;" horiz-adv-x="1386" 
d="M164 0v1434h129v-1434h-129zM1264 332q0 -73 -27.5 -137t-75.5 -112t-112.5 -75.5t-137.5 -27.5h-41q-73 0 -137 27.5t-112 75.5t-75.5 112t-27.5 137v57l129 21v-78q0 -48 18 -89.5t49.5 -73t73 -49.5t89.5 -18h28q48 0 89.5 18t73 49.5t49.5 73t18 89.5v1102h129v-1102
v0z" />
    <glyph glyph-name="ij" unicode="&#x133;" horiz-adv-x="901" 
d="M154 1270v164h143v-164h-143zM164 0v1024h123v-1024h-123zM604 1270v164h144v-164h-144zM737 -109q0 -62 -23.5 -116.5t-64.5 -95.5t-96 -65t-117 -24v117q37 0 69.5 14t56.5 38t38 56.5t14 69.5v1139h123v-1133v0z" />
    <glyph glyph-name="Jcircumflex" unicode="&#x134;" 
d="M807 332q0 -73 -27.5 -137t-75.5 -112t-112 -75.5t-137 -27.5h-41q-73 0 -137.5 27.5t-112.5 75.5t-75.5 112t-27.5 137v57l129 21v-78q0 -48 18 -89.5t49.5 -73t73 -49.5t89.5 -18h29q47 0 89 18t73 49.5t49 73t18 89.5v1102h129v-1102v0zM1008 1597h-123l-144 164
l-143 -164h-123l205 246h123z" />
    <glyph glyph-name="jcircumflex" unicode="&#x135;" horiz-adv-x="451" 
d="M287 -109q0 -62 -23.5 -116.5t-64.5 -95.5t-96 -65t-117 -24v117q37 0 69.5 14t56.5 38t38 56.5t14 69.5v1139h123v-1133v0zM492 1188h-123l-144 164l-143 -164h-123l205 246h123z" />
    <glyph glyph-name="kcommaaccent" unicode="&#x137;" 
d="M729 0l-418 512l418 512h160l-428 -512l428 -512h-160zM164 0v1434h123v-1434h-123zM461 -604h-51v440h153z" />
    <glyph glyph-name="kgreenlandic" unicode="&#x138;" 
d="M729 0l-418 512l418 512h160l-428 -512l428 -512h-160zM164 0v1024h123v-1024h-123z" />
    <glyph glyph-name="Ldotaccent" unicode="&#x13f;" horiz-adv-x="842" 
d="M143 0v1434h129v-1311h549v-123h-678zM510 655v154h154v-154h-154z" />
    <glyph glyph-name="ldot" unicode="&#x140;" horiz-adv-x="666" 
d="M164 0v1434h123v-1434h-123zM451 655v154h153v-154h-153z" />
    <glyph glyph-name="Lslash" unicode="&#x141;" horiz-adv-x="842" 
d="M143 0v539l-127 -72v117l127 71v779h129v-707l381 217v-117l-381 -217v-487h549v-123h-678z" />
    <glyph glyph-name="lslash" unicode="&#x142;" horiz-adv-x="586" 
d="M231 0v578l-170 -91v117l170 90v740h123v-674l170 90v-117l-170 -90v-643h-123z" />
    <glyph glyph-name="Nacute" unicode="&#x143;" horiz-adv-x="1135" 
d="M903 0l-598 1044l-12 62v-1106h-129v1434h67l598 -1045l13 -61v1106h129v-1434h-68zM557 1597h-92l164 246h205z" />
    <glyph glyph-name="nacute" unicode="&#x144;" 
d="M684 0v750q0 37 -14 69.5t-38 56.5t-56.5 38t-69.5 14h-82q-37 0 -69.5 -14t-56.5 -38t-38 -56.5t-14 -69.5v-750h-123v1024h41l67 -104q42 57 105.5 90.5t138.5 33.5h31q62 0 117 -23.5t96 -64.5t64.5 -96t23.5 -117v-743h-123zM414 1188h-92l163 246h205z" />
    <glyph glyph-name="OE" unicode="&#x152;" horiz-adv-x="1608" 
d="M950 332q0 -59 -18.5 -112.5t-50.5 -96.5h645v-123h-811q-28 -9 -57 -14.5t-60 -5.5h-102q-73 0 -137.5 27.5t-112.5 75.5t-75.5 112t-27.5 137v770q0 73 27.5 137t75.5 112t112.5 75.5t137.5 27.5h102q31 0 60 -5.5t57 -14.5h811v-123h-645q32 -45 50.5 -97.5
t18.5 -111.5v-324h447v-123h-447v-323v0zM821 1102q0 48 -18 89.5t-49 72.5t-72.5 49t-89.5 18h-90q-48 0 -89.5 -18t-73 -49t-49.5 -72.5t-18 -89.5v-770q0 -48 18 -89.5t49.5 -73t73 -49.5t89.5 -18h90q48 0 89.5 18t72.5 49.5t49 73t18 89.5v770z" />
    <glyph glyph-name="oe" unicode="&#x153;" horiz-adv-x="1493" 
d="M1370 281q0 -62 -23.5 -117t-64.5 -96t-96 -64.5t-117 -23.5h-82q-74 0 -137 32.5t-105 87.5q-42 -55 -103.5 -87.5t-135.5 -32.5h-82q-62 0 -117 23.5t-96 64.5t-64.5 96t-23.5 117v462q0 62 23.5 117t64.5 96t96 64.5t117 23.5h82q74 0 135.5 -33t103.5 -87
q42 54 105 87t137 33h82q62 0 117 -23.5t96 -64.5t64.5 -96t23.5 -117v-241h-561v-228q0 -37 14 -69.5t38 -56.5t56.5 -38t69.5 -14h82q37 0 69.5 14t56.5 38t38 56.5t14 69.5v68l123 -20v-41v0zM684 750q0 37 -14 69.5t-38 56.5t-56.5 38t-69.5 14h-82q-37 0 -69.5 -14
t-56.5 -38t-38 -56.5t-14 -69.5v-476q0 -37 14 -69.5t38 -56.5t56.5 -38t69.5 -14h82q37 0 69.5 14t56.5 38t38 56.5t14 69.5v476zM1247 750q0 37 -14 69.5t-38 56.5t-56.5 38t-69.5 14h-82q-37 0 -69.5 -14t-56.5 -38t-38 -56.5t-14 -69.5v-152h438v152z" />
    <glyph glyph-name="Racute" unicode="&#x154;" horiz-adv-x="1069" 
d="M838 0l-389 612h-177v-612h-129v1434h455q73 0 137 -27.5t112 -75.5t75.5 -112.5t27.5 -137.5v-116q0 -73 -27.5 -137.5t-75.5 -112.5t-112 -75.5t-137 -27.5l389 -612h-149zM821 1081q0 48 -18 89.5t-49 73t-72.5 49.5t-89.5 18h-320v-576h320q48 0 89.5 18t72.5 49.5
t49 73t18 89.5v116zM463 1597h-92l164 246h204z" />
    <glyph glyph-name="Rcommaaccent" unicode="&#x156;" horiz-adv-x="1069" 
d="M838 0l-389 612h-177v-612h-129v1434h455q73 0 137 -27.5t112 -75.5t75.5 -112.5t27.5 -137.5v-116q0 -73 -27.5 -137.5t-75.5 -112.5t-112 -75.5t-137 -27.5l389 -612h-149zM821 1081q0 48 -18 89.5t-49 73t-72.5 49.5t-89.5 18h-320v-576h320q48 0 89.5 18t72.5 49.5
t49 73t18 89.5v116zM516 -604h-51v440h153z" />
    <glyph glyph-name="rcommaaccent" unicode="&#x157;" horiz-adv-x="588" 
d="M424 907q-37 0 -69.5 -14t-56.5 -38t-38 -56.5t-14 -69.5v-729h-123v1024h41l67 -104q42 57 105.5 90.5t138.5 33.5h72v-137h-123zM174 -604h-51v440h153z" />
    <glyph glyph-name="Rcaron" unicode="&#x158;" horiz-adv-x="1069" 
d="M838 0l-389 612h-177v-612h-129v1434h455q73 0 137 -27.5t112 -75.5t75.5 -112.5t27.5 -137.5v-116q0 -73 -27.5 -137.5t-75.5 -112.5t-112 -75.5t-137 -27.5l389 -612h-149zM821 1081q0 48 -18 89.5t-49 73t-72.5 49.5t-89.5 18h-320v-576h320q48 0 89.5 18t72.5 49.5
t49 73t18 89.5v116zM575 1597h-122l-205 246h123l143 -164l143 164h123z" />
    <glyph glyph-name="rcaron" unicode="&#x159;" horiz-adv-x="588" 
d="M424 907q-37 0 -69.5 -14t-56.5 -38t-38 -56.5t-14 -69.5v-729h-123v1024h41l67 -104q42 57 105.5 90.5t138.5 33.5h72v-137h-123zM377 1188h-123l-205 246h123l143 -164l144 164h123z" />
    <glyph glyph-name="Scaron" unicode="&#x160;" horiz-adv-x="1073" 
d="M950 332q0 -73 -29.5 -137t-79 -112t-115 -75.5t-138.5 -27.5h-103q-73 0 -138.5 27.5t-115 75.5t-79 112t-29.5 137v57l129 21v-78q0 -48 19.5 -89.5t52.5 -73t76.5 -49.5t91.5 -18h90q48 0 91 18t76 49.5t52.5 73t19.5 89.5v43q0 74 -29 123t-77 83.5t-108.5 58.5
t-124.5 48t-124.5 53t-108.5 72.5t-77 106.5t-29 155v27q0 73 27.5 137t75.5 112t112.5 75.5t137.5 27.5h92q73 0 137 -27.5t112 -75.5t75.5 -112t27.5 -137v-37l-129 -21v58q0 48 -18 89.5t-49 72.5t-72.5 49t-89.5 18h-80q-48 0 -89.5 -18t-73 -49t-49.5 -72.5t-18 -89.5
v-27q0 -69 29 -116t77 -80.5t108.5 -58t124.5 -50t124.5 -56t108.5 -75t77 -108.5t29 -156v-43zM598 1597h-123l-205 246h123l144 -164l143 164h123z" />
    <glyph glyph-name="scaron" unicode="&#x161;" horiz-adv-x="950" 
d="M827 260q0 -62 -25 -113.5t-68 -88.5t-99.5 -57.5t-118.5 -20.5h-82q-62 0 -118.5 23.5t-99 64.5t-68 96t-25.5 117v41l123 20v-68q0 -37 15.5 -69.5t41.5 -56.5t60 -38t71 -14h82q37 0 71 11t60.5 31.5t42 49.5t15.5 66q0 55 -24 90t-63.5 58.5t-90 39t-103.5 31
t-103.5 35.5t-90 52.5t-63.5 81.5t-24 122q0 62 24 113.5t65 88.5t95.5 57.5t116.5 20.5h72q62 0 117 -23.5t96 -64.5t64.5 -96t23.5 -117v-4l-123 -20v31q0 37 -14 69.5t-38 56.5t-56.5 38t-69.5 14h-72q-37 0 -69.5 -11t-56.5 -31.5t-38 -49.5t-14 -66q0 -53 24 -86.5
t63.5 -56.5t90 -38.5t103 -32t103 -37.5t90 -54t63.5 -82.5t24 -122.5zM537 1188h-123l-205 246h123l143 -164l143 164h123z" />
    <glyph glyph-name="Ydieresis" unicode="&#x178;" horiz-adv-x="950" 
d="M541 686v-686h-129v684l-371 750h139l295 -596l295 596h139zM205 1640v154h153v-154h-153zM592 1640v154h153v-154h-153z" />
    <glyph glyph-name="Zcaron" unicode="&#x17d;" horiz-adv-x="971" 
d="M82 0v61l639 1250h-619v123h787v-62l-639 -1249h639v-123h-807zM547 1597h-123l-205 246h123l143 -164l144 164h123z" />
    <glyph glyph-name="zcaron" unicode="&#x17e;" horiz-adv-x="848" 
d="M82 0v55l516 852h-496v117h664v-55l-516 -852h516v-117h-684zM485 1188h-123l-204 246h123l143 -164l143 164h123z" />
    <glyph glyph-name="florin" unicode="&#x192;" horiz-adv-x="752" 
d="M317 743h-184l17 117h184l43 303q8 56 36 105.5t70 86.5t94.5 58t108.5 21h113l-17 -117h-112q-31 0 -59.5 -11.5t-51.5 -31.5t-38 -47t-19 -58l-45 -309h239l-16 -117h-240l-123 -882q-7 -56 -35.5 -105.5t-70 -86.5t-93.5 -58t-108 -21h-112l16 117h113q30 0 58 11.5
t50.5 31.5t38 47t19.5 58z" />
    <glyph glyph-name="circumflex" unicode="&#x2c6;" horiz-adv-x="942" 
d="M737 1188h-123l-143 164l-143 -164h-123l205 246h122z" />
    <glyph glyph-name="caron" unicode="&#x2c7;" horiz-adv-x="942" 
d="M532 1188h-122l-205 246h123l143 -164l143 164h123z" />
    <glyph glyph-name="breve" unicode="&#x2d8;" horiz-adv-x="952" 
d="M299 1446q0 -34 13.5 -60t37.5 -43t56 -25.5t69 -8.5t69.5 8.5t56.5 25.5t38 43t14 60h95q0 -57 -21.5 -100.5t-58 -72.5t-86.5 -44t-107 -15t-106 15t-85.5 44t-57.5 72.5t-21 100.5h94z" />
    <glyph glyph-name="dotaccent" unicode="&#x2d9;" horiz-adv-x="563" 
d="M205 1231v153h153v-153h-153z" />
    <glyph glyph-name="ring" unicode="&#x2da;" horiz-adv-x="834" 
d="M205 1358q0 44 16.5 82.5t45 67.5t67 46t82.5 17t82.5 -17t67.5 -46t46 -67.5t17 -82.5t-17 -82.5t-46 -67t-67.5 -45t-82.5 -16.5t-82.5 16.5t-67 45t-45 67t-16.5 82.5zM307 1358q0 -22 8.5 -42.5t23.5 -35.5t35 -24t42 -9q23 0 43 9t35 24t23.5 35.5t8.5 42.5
q0 23 -8.5 43.5t-23.5 35.5t-35 24t-43 9q-22 0 -42 -9t-35 -24t-23.5 -35.5t-8.5 -43.5z" />
    <glyph glyph-name="ogonek" unicode="&#x2db;" horiz-adv-x="713" 
d="M365 0q-18 -32 -33 -66q-13 -29 -23 -65.5t-10 -71.5q0 -60 28.5 -89.5t78.5 -29.5q22 0 40 6.5t32 14.5q16 10 30 22v-71q-16 -16 -36 -27q-17 -10 -41.5 -18t-55.5 -8q-35 0 -66 11.5t-54 33.5t-36.5 54.5t-13.5 74.5q0 47 13 88t29 73q18 37 42 68h76z" />
    <glyph glyph-name="tilde" unicode="&#x2dc;" horiz-adv-x="1042" 
d="M657 1319q42 0 64 32t22 83h95q0 -45 -11.5 -84t-34.5 -68t-57.5 -46t-79.5 -17q-48 0 -84.5 18t-68 39t-60 39t-59.5 18q-42 0 -63 -31.5t-21 -80.5h-94q0 44 11 83t33.5 68t57 45.5t80.5 16.5q45 0 79.5 -18t65 -39.5t60.5 -39.5t65 -18z" />
    <glyph glyph-name="hungarumlaut" unicode="&#x2dd;" horiz-adv-x="1098" 
d="M297 1188h-92l164 246h204zM616 1188h-92l164 246h205z" />
    <glyph glyph-name="dotaccentcmb" unicode="&#x307;" horiz-adv-x="563" 
d="M205 1231v153h153v-153h-153z" />
    <glyph glyph-name="endash" unicode="&#x2013;" horiz-adv-x="1126" 
d="M1024 743v-116h-922v116h922z" />
    <glyph glyph-name="emdash" unicode="&#x2014;" horiz-adv-x="2048" 
d="M1946 743v-116h-1844v116h1844z" />
    <glyph glyph-name="quoteleft" unicode="&#x2018;" horiz-adv-x="399" 
d="M246 1434h51v-441h-154z" />
    <glyph glyph-name="quoteright" unicode="&#x2019;" horiz-adv-x="399" 
d="M195 993h-52v441h154z" />
    <glyph glyph-name="quotesinglbase" unicode="&#x201a;" horiz-adv-x="440" 
d="M195 -287h-52v441h154z" />
    <glyph glyph-name="quotedblleft" unicode="&#x201c;" horiz-adv-x="645" 
d="M451 1434h51v-441h-154zM205 1434h51v-441h-154z" />
    <glyph glyph-name="quotedblright" unicode="&#x201d;" horiz-adv-x="645" 
d="M195 993h-52v441h154zM440 993h-51v441h154z" />
    <glyph glyph-name="quotedblbase" unicode="&#x201e;" horiz-adv-x="645" 
d="M195 -287h-52v441h154zM440 -287h-51v441h154z" />
    <glyph glyph-name="dagger" unicode="&#x2020;" horiz-adv-x="926" 
d="M397 1010l-6 424h144l-7 -424l316 22v-145l-318 22l-16 -1319h-94l-19 1319l-315 -22v145z" />
    <glyph glyph-name="daggerdbl" unicode="&#x2021;" horiz-adv-x="926" 
d="M401 1010l-10 424h144l-11 -424l320 22v-145l-322 22l-10 -399l8 -395l324 22v-145l-320 20l11 -422h-144l10 424l-319 -22v145l321 -22l11 393l-11 401l-321 -22v145z" />
    <glyph glyph-name="bullet" unicode="&#x2022;" horiz-adv-x="958" 
d="M123 709q0 74 28 138.5t76.5 113t113.5 76.5t138 28q74 0 139 -28t113.5 -76.5t76.5 -113t28 -138.5t-28 -139t-76.5 -113.5t-113.5 -76.5t-139 -28q-73 0 -138 28t-113.5 76.5t-76.5 113.5t-28 139z" />
    <glyph glyph-name="ellipsis" unicode="&#x2026;" horiz-adv-x="1485" 
d="M143 0v154h154v-154h-154zM666 0v154h153v-154h-153zM1188 0v154h153v-154h-153z" />
    <glyph glyph-name="guilsinglleft" unicode="&#x2039;" horiz-adv-x="623" 
d="M459 84l-377 383l377 383l41 -41l-250 -342l250 -342z" />
    <glyph glyph-name="guilsinglright" unicode="&#x203a;" horiz-adv-x="623" 
d="M123 125l250 342l-250 342l41 41l377 -383l-377 -383z" />
    <glyph glyph-name="fraction" unicode="&#x2044;" horiz-adv-x="936" 
d="M2 0l817 1434h115l-817 -1434h-115z" />
    <glyph glyph-name="Euro" unicode="&#x20ac;" horiz-adv-x="1155" 
d="M354 553v-221q0 -48 18 -89.5t49.5 -73t73 -49.5t89.5 -18h90q48 0 89.5 18t72.5 49.5t49 73t18 89.5v57l129 -20v-37q0 -73 -27.5 -137t-75.5 -112t-112 -75.5t-137 -27.5h-102q-73 0 -137.5 27.5t-112.5 75.5t-75.5 112t-27.5 137v221h-143v102h143v123h-143v103h143
v221q0 73 27.5 137t75.5 112t112.5 75.5t137.5 27.5h102q73 0 137 -27.5t112 -75.5t75.5 -112t27.5 -137v-37l-129 -21v58q0 48 -18 89.5t-49 72.5t-72.5 49t-89.5 18h-90q-48 0 -89.5 -18t-73 -49t-49.5 -72.5t-18 -89.5v-221h473l-59 -103h-414v-123h342l-59 -102h-283z
" />
    <glyph glyph-name="trademark" unicode="&#x2122;" horiz-adv-x="1475" 
d="M1227 758v379l-185 -379h-55l-184 377v-377h-107v676h64l254 -519l256 519h61v-676h-104zM393 1339v-581h-106v581h-205v95h516v-95h-205z" />
    <glyph glyph-name="minus" unicode="&#x2212;" horiz-adv-x="1188" 
d="M1106 782v-129h-1024v129h1024z" />
    <glyph glyph-name="dotlessj" unicode="&#xf6be;" horiz-adv-x="451" 
d="M287 -109q0 -62 -23.5 -116.5t-64.5 -95.5t-96 -65t-117 -24v117q37 0 69.5 14t56.5 38t38 56.5t14 69.5v1139h123v-1133v0z" />
    <glyph glyph-name="commaaccent" unicode="&#xf6c3;" horiz-adv-x="440" 
d="M195 -604h-52v440h154z" />
    <glyph glyph-name="foundryicon" horiz-adv-x="1753" 
d="M1290 84q-91 -57 -196 -90t-220 -33q-104 0 -200 27t-179.5 76t-152 118.5t-117 153.5t-75.5 181t-27 202q0 102 25.5 195t65.5 163.5t89 112t96 41.5q48 0 73.5 -27.5t25.5 -77.5q0 -29 -9 -82.5t-22.5 -118.5t-29 -133t-29 -125.5t-22.5 -97.5t-9 -47q0 -12 10.5 -17
t24.5 -5q17 0 49 5t65 13t59.5 17t30.5 18q1 4 6.5 28t14.5 62t19.5 86.5t21.5 101t22 105.5t19 100.5t13 85.5t5 60q0 44 -18.5 75.5t-50 52t-73.5 30.5t-89 10q-5 0 -12 -0.5t-13 -1.5l-14 -2l-4 6q90 57 193 90t218 33q105 0 202 -27t181 -76t152.5 -118.5t117.5 -153.5
t76 -181t27 -202q0 -102 -25.5 -195t-65.5 -163.5t-89 -112t-96 -41.5q-48 0 -73.5 27.5t-25.5 76.5q0 29 9 83t22.5 118.5t29 133t29 125.5t22.5 96.5t9 45.5q0 14 -10.5 19.5t-24.5 5.5q-17 0 -49 -5t-65 -13t-59 -17.5t-31 -17.5q-1 -5 -10.5 -45.5t-23 -100.5
t-28.5 -132t-28.5 -140t-22 -124.5t-8.5 -86.5q0 -44 18.5 -75.5t50 -52t73.5 -30.5t89 -10h12.5t12.5 1q7 1 14 1l4 -4v0zM934 459q2 10 11.5 52t22.5 100t27.5 123.5t27 123t20.5 99t8 51.5q0 11 -9 14.5t-24 3.5t-42.5 -3.5t-57.5 -9.5t-57 -15t-42 -21q-2 -10 -11.5 -52
t-22.5 -100t-27.5 -123.5t-27 -123t-20.5 -99t-8 -51.5q0 -11 9 -15.5t24 -4.5t42.5 3.5t57.5 10.5t57 16t42 21z" />
    <glyph glyph-name="grave.cap" horiz-adv-x="778" 
d="M205 1843h205l163 -246h-92z" />
    <glyph glyph-name="acute.cap" horiz-adv-x="778" 
d="M297 1597h-92l164 246h204z" />
    <glyph glyph-name="caron.cap" horiz-adv-x="942" 
d="M532 1597h-122l-205 246h123l143 -164l143 164h123z" />
    <glyph glyph-name="circumflex.cap" horiz-adv-x="942" 
d="M737 1597h-123l-143 164l-143 -164h-123l205 246h122z" />
    <glyph glyph-name="ring.cap" horiz-adv-x="834" 
d="M205 1792q0 44 16.5 82.5t45 67.5t67 46t82.5 17t82.5 -17t67.5 -46t46 -67.5t17 -82.5t-17 -82.5t-46 -67t-67.5 -45t-82.5 -16.5t-82.5 16.5t-67 45t-45 67t-16.5 82.5zM307 1792q0 -22 8.5 -42t23.5 -35.5t35 -24.5t42 -9q23 0 43 9t35 24.5t23.5 35.5t8.5 42
q0 23 -8.5 43.5t-23.5 36t-35 24.5t-43 9q-22 0 -42 -9t-35 -24.5t-23.5 -36t-8.5 -43.5z" />
    <glyph glyph-name="dieresis.cap" horiz-adv-x="950" 
d="M205 1640v154h153v-154h-153zM592 1640v154h153v-154h-153z" />
    <glyph glyph-name="tilde.cap" horiz-adv-x="1069" 
d="M657 1729q42 0 64 31.5t22 82.5h95q0 -45 -11.5 -84t-34.5 -68t-57.5 -46t-79.5 -17q-48 0 -84.5 18t-68 39.5t-60 39.5t-59.5 18q-42 0 -63 -31.5t-21 -81.5h-94q0 45 11 83.5t33.5 67.5t57 45.5t80.5 16.5q45 0 79.5 -18t65 -39t60.5 -39t65 -18z" />
    </font>
</defs>
</svg>
